Torrent’s details
Name UFC 258 PPV Usman vs Burns Main Card 2021/02/13 1080p HDTV 50fps | VERUM
Image
Description UFC 258 PPV - Usman vs. Burns

Date: Sat., Feb. 13, 2021
Location: UFC APEX in Las Vegas, Nevada, U.S.A.

UFC 258 PPV Main Event:
170 lbs.: UFC Welterweight champion Kamaru Usman vs. Gilbert Burns

UFC 258 PPV Main Card:
125 lbs.: Maycee Barber vs. Alexa Grasso
185 lbs.: Kelvin Gastelum vs. Ian Heinisch
145 lbs.: Brian Kelleher vs. Ricky Simon
185 lbs.: Julian Marquez vs. Maki Pitolo
_____________

General
Unique ID : 50762252076923640701588654465828474133 (0x26307441FDC8E5FF849D390F72FB4D15)
Complete name : ufc.258.usman.vs.burns.ppv.1080p.hdtv.x264-verum.mkv
Format : Matroska
Format version : Version 4
File size : 10.1 GiB
Duration : 3 h 15 min
Overall bit rate : 7 391 kb/s
Encoded date : UTC 2021-02-14 09:08:15
Writing application : mkvmerge v30.1.0 ('Forever And More' ) 64-bit
Writing library : libebml v1.3.6 + libmatroska v1.4.9

Video
ID : 1
Format : AVC
Format/Info : Advanced Video Codec
Format profile : High@L4.2
Format settings : CABAC / 4 Ref Frames
Format settings, CABAC : Yes
Format settings, Reference frames : 4 frames
Codec ID : V_MPEG4/ISO/AVC
Duration : 3 h 15 min
Bit rate : 7 004 kb/s
Width : 1 920 pixels
Height : 1 080 pixels
Display aspect ratio : 16:9
Frame rate mode : Constant
Frame rate : 50.000 FPS
Color space : YUV
Chroma subsampling : 4:2:0
Bit depth : 8 bits
Scan type : Progressive
Bits/(Pixel*Frame) : 0.068
Stream size : 9.59 GiB (95%)
Writing library : x264 core 161 r3033 0d754ec
Encoding settings : cabac=1 / ref=4 / deblock=1:0:0 / analyse=0x3:0x113 / me=hex /
subme=8 / psy=1 / psy_rd=1.00:0.00 / mixed_ref=1 / me_range=16 / chroma_me=1 /
trellis=2 / 8x8dct=1 / cqm=0 / deadzone=21,11 / fast_pskip=1 / chroma_qp_offset=-2 /
threads=24 / lookahead_threads=4 / sliced_threads=0 / nr=0 / decimate=1 / interlaced=0 /
bluray_compat=0 / constrained_intra=0 / bframes=3 / b_pyramid=2 / b_adapt=1 / b_bias=0 /
direct=3 / weightb=1 / open_gop=0 / weightp=2 / keyint=250 / keyint_min=25 / scenecut=40 /
intra_refresh=0 / rc_lookahead=50 / rc=crf / mbtree=1 / crf=22.0 / qcomp=0.60 / qpmin=0 /
qpmax=69 / qpstep=4 / ip_ratio=1.40 / aq=1:1.00
Default : Yes
Forced : No
Color range : Limited
Color primaries : BT.709
Transfer characteristics : BT.709
Matrix coefficients : BT.709

Audio
ID : 2
Format : MPEG Audio
Format version : Version 1
Format profile : Layer 2
Format settings : Dual mono
Codec ID : A_MPEG/L2
Codec ID/Hint : MP2
Duration : 3 h 15 min
Bit rate mode : Constant
Bit rate : 384 kb/s
Channel(s) : 2 channels
Sampling rate : 48.0 kHz
Frame rate : 41.667 FPS (1152 SPF)
Compression mode : Lossy
Stream size : 538 MiB (5%)
Language : English
Default : Yes
Forced : No

Respect to VERUM!  cool2.gifdrunk.gifsleep.gif
Category MMA
Rating N/A
Size 10.12 GB
Show/Hide Files
1 file