Torrent’s details
Name Argentine National Team, Road to Qatar 720p HDTV AAC H 264- No Group
Image
Description
Code
General
Complete name                  : D:Argentine National Team, Road to QatarArgentine National Team, Road to Qatar_S01E01_America Cup.mp4
Format                         : MPEG-4
Format profile                 : Base Media
Codec ID                       : isom (isom/iso2/avc1/mp41)
File size                      : 1.66 GiB
Duration                       : 59 min 1 s
Overall bit rate mode          : Variable
Overall bit rate               : 4 032 kb/s
Collection                     : Argentine National Team, Road to Qatar
Season                         : 1
Track name                     : America Cup
Description                    : The last most remarkable feat 28-year later. Obstacles were overcome: the pandemic, Maradona's death, and the consolidation of a Technical Director in whom few trusted. Messi has redeemed himself.
Recorded date                  : 2022
Writing application            : Lavf58.29.100
Cover                          : Yes
Part_ID                        : 1

Video
ID                             : 1
Format                         : AVC
Format/Info                    : Advanced Video Codec
Format profile                 : Main@L3.1
Format settings                : CABAC / 3 Ref Frames
Format settings, CABAC         : Yes
Format settings, Reference fra : 3 frames
Codec ID                       : avc1
Codec ID/Info                  : Advanced Video Coding
Duration                       : 59 min 1 s
Bit rate mode                  : Variable
Bit rate                       : 3 880 kb/s
Maximum bit rate               : 6 000 kb/s
Width                          : 1 280 pixels
Height                         : 720 pixels
Display aspect ratio           : 16:9
Frame rate mode                : Constant
Frame rate                     : 25.000 FPS
Color space                    : YUV
Chroma subsampling             : 4:2:0
Bit depth                      : 8 bits
Scan type                      : Progressive
Bits/(Pixel*Frame)             : 0.168
Stream size                    : 1.60 GiB (96%)
Codec configuration box        : avcC

Audio
ID                             : 2
Format                         : AAC LC
Format/Info                    : Advanced Audio Codec Low Complexity
Codec ID                       : mp4a-40-2
Duration                       : 59 min 1 s
Bit rate mode                  : Constant
Bit rate                       : 128 kb/s
Channel(s)                     : 2 channels
Channel layout                 : L R
Sampling rate                  : 48.0 kHz
Frame rate                     : 46.875 FPS (1024 SPF)
Compression mode               : Lossy
Stream size                    : 54.0 MiB (3%)
Title                          : EspaƱol
Language                       : Spanish
Default                        : Yes
Alternate group                : 1

Text #1
ID                             : 3
Format                         : Timed Text
Muxing mode                    : sbtl
Codec ID                       : tx3g
Duration                       : 58 min 53 s
Bit rate mode                  : Variable
Bit rate                       : 97 b/s
Frame rate                     : 0.544 FPS
Stream size                    : 41.8 KiB (0%)
Title                          : English
Language                       : English
Default                        : Yes
Forced                         : No
Alternate group                : 3

Text #2
ID                             : 4
Format                         : Timed Text
Muxing mode                    : sbtl
Codec ID                       : tx3g
Duration                       : 58 min 53 s
Bit rate mode                  : Variable
Bit rate                       : 100 b/s
Frame rate                     : 0.555 FPS
Stream size                    : 43.2 KiB (0%)
Title                          : English [CC]
Language                       : English
Default                        : No
Forced                         : No
Alternate group                : 3











Category Documentary
Rating N/A
Size 3.11 GB
Show/Hide Files
2 files