Torrent’s details
Name CCTV5 Volleyball Nations League Women 2022 China VS Belgium 202206015 CN 1080p HDTV AVC AAC-NoGroup
Description


[font=Impact]★★★★★  China VS Belgium   ★★★★★ [/font]
-----------------------------------------------------------------------------------------------------------


Quote:

General
Complete name                            : \NAStempCCTV5 Volleyball Nations League.Women.2022.China VS Belgium.202206015.CN.1080p.HDTV.AVC.AAC-NoGroupCCTV5 Volleyball Nations League.Women.2022.China VS Belgium.202206015.CN.1080p.HDTV.AVC.AAC-NoGroup.mp4
Format                                   : MPEG-4
Format profile                           : Base Media
Codec ID                                 : isom (isom/iso2/avc1/mp41)
File size                                : 1.47 GiB
Duration                                 : 1 h 17 min
Overall bit rate mode                    : Variable
Overall bit rate                         : 2 706 kb/s
Writing application                      : Lavf58.32.104

Video
ID                                       : 1
Format                                   : AVC
Format/Info                              : Advanced Video Codec
Format profile                           : High@L4
Format settings                          : CABAC / 4 Ref Frames
Format settings, CABAC                   : Yes
Format settings, Reference frames        : 4 frames
Codec ID                                 : avc1
Codec ID/Info                            : Advanced Video Coding
Duration                                 : 1 h 17 min
Bit rate                                 : 2 604 kb/s
Width                                    : 1 920 pixels
Height                                   : 1 080 pixels
Display aspect ratio                     : 16:9
Frame rate mode                          : Variable
Frame rate                               : 25.000 FPS
Minimum frame rate                       : 24.993 FPS
Maximum frame rate                       : 25.007 FPS
Color space                              : YUV
Chroma subsampling                       : 4:2:0
Bit depth                                : 8 bits
Scan type                                : Progressive
Bits/(Pixel*Frame)                       : 0.050
Stream size                              : 1.42 GiB (96%)
Color range                              : Limited
Codec configuration box                  : avcC

Audio
ID                                       : 2
Format                                   : AAC LC
Format/Info                              : Advanced Audio Codec Low Complexity
Codec ID                                 : mp4a-40-2
Duration                                 : 1 h 17 min
Bit rate mode                            : Variable
Bit rate                                 : 96.0 kb/s
Maximum bit rate                         : 115 kb/s
Channel(s)                               : 2 channels
Channel layout                           : L R
Sampling rate                            : 48.0 kHz
Frame rate                               : 46.875 FPS (1024 SPF)
Compression mode                         : Lossy
Stream size                              : 53.6 MiB (4%)
Default                                  : Yes
Alternate group                          : 1







Category Volleyball/Beach
Rating
Size 1.47 GB
Show/Hide Files
1 file