Torrent’s details
Name Formula1 2018 British Grand Prix Pre-Race 720p HDTV DD5.1 50fps x264-wAm
Description SKYSPORTS F1
FULL BROADCAST
Includes Pit Lane Live & On The Grid
1 & 2 of 4 race day broadcasts.
DOLBY DIGITAL 5.1 SURROUND SOUND
ADVERTS REMOVED


General
Unique ID                   : 150439187569858680198600578401748350817 (0x712D889AFE3F87AAE6AC8ADAAA537761)
Complete name               : F:500GBDownloadsFormula1 2018 British Grand Prix Pre-Race 720p HDTV DD5.1 50fps x264-wAm.mkv
Format                      : Matroska
Format version              : Version 4 / Version 2
File size                   : 2.66 GiB
Duration                    : 1 h 19 min
Overall bit rate            : 4 758 kb/s
Writing application         : Lavf57.71.100
Writing library             : Lavf57.71.100
ErrorDetectionType          : Per level 1

Video
ID                          : 1
Format                      : AVC
Format/Info                 : Advanced Video Codec
Format profile              : High@L4.1
Format settings             : CABAC / 6 Ref Frames
Format settings, CABAC      : Yes
Format settings, ReFrames   : 6 frames
Codec ID                    : V_MPEG4/ISO/AVC
Duration                    : 1 h 19 min
Bit rate                    : 4 279 kb/s
Width                       : 1 280 pixels
Height                      : 720 pixels
Display aspect ratio        : 16:9
Frame rate mode             : Constant
Frame rate                  : 50.000 FPS
Color space                 : YUV
Chroma subsampling          : 4:2:0
Bit depth                   : 8 bits
Scan type                   : Progressive
Bits/(Pixel*Frame)          : 0.093
Stream size                 : 2.39 GiB (90%)
Default                     : Yes
Forced                      : No

Audio
ID                          : 2
Format                      : AC-3
Format/Info                 : Audio Coding 3
Codec ID                    : A_AC3
Duration                    : 1 h 19 min
Bit rate mode               : Constant
Bit rate                    : 384 kb/s
Channel(s)                  : 6 channels
Channel positions           : Front: L C R, Side: L R, LFE
Sampling rate               : 48.0 kHz
Frame rate                  : 31.250 FPS (1536 SPF)
Bit depth                   : 16 bits
Compression mode            : Lossy
Delay relative to video     : 850 ms
Stream size                 : 220 MiB (8%)
Service kind                : Complete Main
Default                     : Yes
Forced                      : No

Category Formula1
Rating
Size 2.66 GB
Show/Hide Files
1 file