Torrent’s details
Name 2002.01.21 Sixers vs Sonics
Image
Description Sixers vs Sonics regular game!
Format                      : MPEG-PS
File size                   : 1 023 MiB
Duration                    : 15 s 516 ms
Overall bit rate mode       : Variable
Overall bit rate            : 553 Mb/s

Video
ID                          : 224 (0xE0)
Format                      : MPEG Video
Format version              : Version 2
Format profile              : Main@Main
Format settings, BVOP       : Yes
Format settings, Matrix     : Default
Format settings, GOP        : M=3, N=15
Format settings, picture st : Frame
Duration                    : 15 s 516 ms
Bit rate mode               : Variable
Bit rate                    : 542 Mb/s
Maximum bit rate            : 9 586 kb/s
Width                       : 704 pixels
Height                      : 480 pixels
Display aspect ratio        : 4:3
Frame rate                  : 29.970 (30000/1001) FPS
Standard                    : NTSC
Color space                 : YUV
Chroma subsampling          : 4:2:0
Bit depth                   : 8 bits
Scan type                   : Interlaced
Scan order                  : Top Field First
Compression mode            : Lossy
Bits/(Pixel*Frame)          : 53.523
Time code of first frame    : 00:00:00:00
Time code source            : Group of pictures header
Stream size                 : 1 003 MiB (98%)
Color primaries             : BT.601 NTSC
Transfer characteristics    : BT.601
Matrix coefficients         : BT.601

Audio
ID                          : 189 (0xBD)-128 (0x80)
Format                      : AC-3
Format/Info                 : Audio Coding 3
Mode extension              : CM (complete main)
Format settings, Endianness : Big
Muxing mode                 : DVD-Video
Duration                    : 14 s 947 ms
Bit rate mode               : Constant
Bit rate                    : 256 kb/s
Channel(s)                  : 2 channels
Channel positions           : Front: L R
Sampling rate               : 48.0 kHz
Frame rate                  : 31.250 FPS (1536 spf)
Bit depth                   : 16 bits
Compression mode            : Lossy
Stream size                 : 467 KiB (0%)
Category NBA/WNBA
Rating
Size 3.95 GB
Show/Hide Files
9 files