Torrent’s details
Name Cricket 2018 - Trans-Tasman Twenty20 Tri-Series M02 - Australia v England 720p50 x264
Description


Cricket 2018 - Trans-Tasman Twenty20 Tri-Series M02 - Australia v England REPACK 720p50 x264

General
Complete name                            : /sdc/0017/downloads/Cricket 2018 - Trans-Tasman Twenty20 Tri-Series M02 - Australia v England REPACK 720p50 x264.mp4
Format                                   : MPEG-4
Format profile                           : Base Media
Codec ID                                 : isom
File size                                : 6.13 GiB
Duration                                 : 3h 8mn
Overall bit rate mode                    : Variable
Overall bit rate                         : 4 660 Kbps
Encoded date                             : UTC 2018-02-08 21:01:30
Tagged date                              : UTC 2018-02-08 21:01:30

Video
ID                                       : 1
Format                                   : AVC
Format/Info                              : Advanced Video Codec
Format profile                           : High@L4.1
Format settings, CABAC                   : Yes
Format settings, ReFrames                : 8 frames
Codec ID                                 : avc1
Codec ID/Info                            : Advanced Video Coding
Duration                                 : 3h 8mn
Bit rate                                 : 4 508 Kbps
Maximum bit rate                         : 23.5 Mbps
Width                                    : 1 280 pixels
Height                                   : 720 pixels
Display aspect ratio                     : 16:9
Frame rate mode                          : Constant
Frame rate                               : 50.000 fps
Color space                              : YUV
Chroma subsampling                       : 4:2:0
Bit depth                                : 8 bits
Scan type                                : Progressive
Bits/(Pixel*Frame)                       : 0.098
Stream size                              : 5.93 GiB (97%)
Title                                    : Video
Writing library                          : x264 core 148 r2597 e86f3a1
Tagged date                              : UTC 2018-02-08 21:05:24

Audio
ID                                       : 2
Format                                   : AAC
Format/Info                              : Advanced Audio Codec
Format profile                           : LC
Codec ID                                 : 40
Duration                                 : 3h 8mn
Bit rate mode                            : Variable
Bit rate                                 : 144 Kbps
Maximum bit rate                         : 175 Kbps
Channel(s)                               : 2 channels
Channel positions                        : Front: L R
Sampling rate                            : 48.0 KHz
Compression mode                         : Lossy
Stream size                              : 195 MiB (3%)
Title                                    :  
Encoded date                             : UTC 2018-02-08 20:53:35
Tagged date                              : UTC 2018-02-08 21:05:24
Category Cricket
Rating N/A
Size 6.13 GB
Show/Hide Files
1 file