Torrent’s details
Name Ligue.1.2019.02.08.Marseille.vs.Dijon.720p.WEBRip.x264-VLF | BEIN
Image
Description Ligue.1.2019.02.08.Marseille.vs.Dijon.720p.WEBRip.x264-VLF | BEIN

Do not re-upload elsewhere without permission!
This includes other torrent sites, Usenet, direct download links, etc.




Network: BEIN
Language: English
Notes: Full Match


Coming Soon

General
Complete name                            : L1.2019.02.08.Marseille.vs.Dijon.BEIN.720p-EN.mp4
Format                                   : MPEG-4
Format profile                           : Base Media
Codec ID                                 : isom (isom/iso2/avc1/mp41)
File size                                : 2.51 GiB
Duration                                 : 1h 43mn
Overall bit rate                         : 3 486 Kbps
Encoded date                             : UTC 1904-01-01 00:00:00
Tagged date                              : UTC 1904-01-01 00:00:00
Writing application                      : Lavf57.83.100

Video
ID                                       : 1
Format                                   : AVC
Format/Info                              : Advanced Video Codec
Format profile                           : High@L3.1
Format settings, CABAC                   : Yes
Format settings, ReFrames                : 4 frames
Codec ID                                 : avc1
Codec ID/Info                            : Advanced Video Coding
Duration                                 : 1h 43mn
Bit rate                                 : 3 314 Kbps
Width                                    : 1 280 pixels
Height                                   : 720 pixels
Display aspect ratio                     : 16:9
Frame rate mode                          : Constant
Frame rate                               : 29.970 (30000/1001) fps
Color space                              : YUV
Chroma subsampling                       : 4:2:0
Bit depth                                : 8 bits
Scan type                                : Progressive
Bits/(Pixel*Frame)                       : 0.120
Stream size                              : 2.39 GiB (95%)
Encoded date                             : UTC 1904-01-01 00:00:00
Tagged date                              : UTC 1904-01-01 00:00:00

Audio
ID                                       : 2
Format                                   : AAC
Format/Info                              : Advanced Audio Codec
Format profile                           : LC
Codec ID                                 : 40
Duration                                 : 1h 43mn
Bit rate mode                            : Constant
Bit rate                                 : 163 Kbps
Channel(s)                               : 2 channels
Channel positions                        : Front: L R
Sampling rate                            : 44.1 KHz
Frame rate                               : 43.066 fps (1024 spf)
Compression mode                         : Lossy
Stream size                              : 120 MiB (5%)
Default                                  : Yes
Alternate group                          : 1
Encoded date                             : UTC 1904-01-01 00:00:00
Tagged date                              : UTC 1904-01-01 00:00:00

Text #1
ID                                       : 1-CC1
Format                                   : EIA-608
Muxing mode                              : SCTE 128 / DTVCC Transport
Muxing mode, more info                   : Muxed in Video #1
Duration                                 : 1h 43mn
Bit rate mode                            : Constant
Stream size                              : 0.00 Byte (0%)
Encoded stream size                      : 0.00 Byte (0%)

Text #2
ID                                       : 1-CC3
Format                                   : EIA-608
Muxing mode                              : SCTE 128 / DTVCC Transport
Muxing mode, more info                   : Muxed in Video #1
Duration                                 : 1h 43mn
Bit rate mode                            : Constant
Stream size                              : 0.00 Byte (0%)
Encoded stream size                      : 0.00 Byte (0%)

Text #3
ID                                       : 1-1
Format                                   : EIA-708
Muxing mode                              : SCTE 128 / DTVCC Transport
Muxing mode, more info                   : Muxed in Video #1
Duration                                 : 1h 43mn
Bit rate mode                            : Constant
Stream size                              : 0.00 Byte (0%)
Encoded stream size                      : 0.00 Byte (0%)

Text #4
ID                                       : 1-2
Format                                   : EIA-708
Muxing mode                              : SCTE 128 / DTVCC Transport
Muxing mode, more info                   : Muxed in Video #1
Duration                                 : 1h 43mn
Bit rate mode                            : Constant
Stream size                              : 0.00 Byte (0%)
Encoded stream size                      : 0.00 Byte (0%)

Text #5
ID                                       : 1-3
Format                                   : EIA-708
Muxing mode                              : SCTE 128 / DTVCC Transport
Muxing mode, more info                   : Muxed in Video #1
Duration                                 : 1h 43mn
Bit rate mode                            : Constant
Stream size                              : 0.00 Byte (0%)
Encoded stream size                      : 0.00 Byte (0%)

Text #6
ID                                       : 1-4
Format                                   : EIA-708
Muxing mode                              : SCTE 128 / DTVCC Transport
Muxing mode, more info                   : Muxed in Video #1
Duration                                 : 1h 43mn
Bit rate mode                            : Constant
Stream size                              : 0.00 Byte (0%)
Encoded stream size                      : 0.00 Byte (0%)

Text #7
ID                                       : 1-5
Format                                   : EIA-708
Muxing mode                              : SCTE 128 / DTVCC Transport
Muxing mode, more info                   : Muxed in Video #1
Duration                                 : 1h 43mn
Bit rate mode                            : Constant
Stream size                              : 0.00 Byte (0%)
Encoded stream size                      : 0.00 Byte (0%)

Text #8
ID                                       : 1-6
Format                                   : EIA-708
Muxing mode                              : SCTE 128 / DTVCC Transport
Muxing mode, more info                   : Muxed in Video #1
Duration                                 : 1h 43mn
Bit rate mode                            : Constant
Stream size                              : 0.00 Byte (0%)
Encoded stream size                      : 0.00 Byte (0%)


Category European Soccer
Rating N/A
Size 2.51 GB
Show/Hide Files
1 file