Torrent’s details
Name NCAAM 2023.01.18 Nebraska-Ohio St BIG10 HD Replay
Description Video
ID                                       : 1
Format                                   : AVC
Format/Info                              : Advanced Video Codec
Format profile                           : Main@L3.2
Format settings                          : CABAC / 3 Ref Frames
Format settings, CABAC                   : Yes
Format settings, RefFrames               : 3 frames
Codec ID                                 : avc1
Codec ID/Info                            : Advanced Video Coding
Duration                                 : 2 h 5 min
Source duration                          : 2 h 5 min
Bit rate                                 : 4 954 kb/s
Width                                    : 1 280 pixels
Height                                   : 720 pixels
Display aspect ratio                     : 16:9
Frame rate mode                          : Variable
Frame rate                               : 59.940 (59940/1000) FPS
Minimum frame rate                       : 11.122 FPS
Maximum frame rate                       : 62.563 FPS
Color space                              : YUV
Chroma subsampling                       : 4:2:0
Bit depth                                : 8 bits
Scan type                                : Progressive
Bits/(Pixel*Frame)                       : 0.090
Stream size                              : 4.34 GiB (97%)
Source stream size                       : 4.34 GiB (97%)
Language                                 : English
Encoded date                             : UTC 2023-01-19 09:05:07
Tagged date                              : UTC 2023-01-19 09:05:07
Color range                              : Limited
Color primaries                          : BT.709
Transfer characteristics                 : BT.709
Matrix coefficients                      : BT.709
mdhd_Duration                            : 7526895

Audio
ID                                       : 2
Format                                   : AAC
Format/Info                              : Advanced Audio Codec
Format profile                           : LC
Codec ID                                 : mp4a-40-2
Duration                                 : 2 h 5 min
Source duration                          : 2 h 5 min
Bit rate mode                            : Variable
Bit rate                                 : 128 kb/s
Maximum bit rate                         : 211 kb/s
Channel(s)                               : 2 channels
Channel positions                        : Front: L R
Sampling rate                            : 44.1 kHz
Frame rate                               : 43.066 FPS (1024 SPF)
Compression mode                         : Lossy
Stream size                              : 115 MiB (3%)
Source stream size                       : 115 MiB (3%)
Language                                 : English
Category NCAA Basket/Football
Rating N/A
Size 4.47 GB
Show/Hide Files
1 file