Torrent’s details
Name UCL.2021-22.Villarreal.vs.Liverpool.03.05.2022.2160p.UHDTV.DD2.0.H.265-playTV RO
Description General
Unique ID                                : 42786683050206844291543921707575864183 (0x20306A585BB65812600F4CE421DAEB77)
Complete name                            : UCL.2021-22.Villarreal.vs.Liverpool.03.05.2022.2160p.UHDTV.DD2.0.H.265-playTV.mkv
Format                                   : Matroska
Format version                           : Version 4
File size                                : 21.3 GiB
Duration                                 : 1 h 59 min
Overall bit rate                         : 25.4 Mb/s
Encoded date                             : UTC 2022-05-03 21:20:50
Writing application                      : mkvmerge v53.0.0 ('Fool's Gold'wink.gif 64-bit
Writing library                          : libebml v1.4.1 + libmatroska v1.6.2

Video
ID                                       : 1
Format                                   : HEVC
Format/Info                              : High Efficiency Video Coding
Format profile                           : Main 10@L5.1@High
Codec ID                                 : V_MPEGH/ISO/HEVC
Duration                                 : 1 h 59 min
Bit rate                                 : 25.2 Mb/s
Width                                    : 3 840 pixels
Height                                   : 2 160 pixels
Display aspect ratio                     : 16:9
Frame rate mode                          : Constant
Frame rate                               : 50.000 FPS
Standard                                 : Component
Color space                              : YUV
Chroma subsampling                       : 4:2:0 (Type 0)
Bit depth                                : 10 bits
Bits/(Pixel*Frame)                       : 0.061
Stream size                              : 21.1 GiB (99%)
Default                                  : Yes
Forced                                   : No
Color range                              : Limited
Color primaries                          : BT.709
Transfer characteristics                 : BT.709
Matrix coefficients                      : BT.709

Audio
ID                                       : 2
Format                                   : AC-3
Format/Info                              : Audio Coding 3
Commercial name                          : Dolby Digital
Codec ID                                 : A_AC3
Duration                                 : 1 h 59 min
Bit rate mode                            : Constant
Bit rate                                 : 224 kb/s
Channel(s)                               : 2 channels
Channel layout                           : L R
Sampling rate                            : 48.0 kHz
Frame rate                               : 31.250 FPS (1536 SPF)
Compression mode                         : Lossy
Delay relative to video                  : -40 ms
Stream size                              : 192 MiB (1%)
Language                                 : Romanian
Service kind                             : Complete Main
Default                                  : Yes
Forced                                   : No



UCL.2021-22.Villarreal.vs.Liverpool.03.05.2022.2160p.UHDTV.DD2.0.H.265-playTV


* RELEASE iNFO * wrote:

█      RUNTIME............: 1 h 59 min                                               █
█      VIDEO CODEC........: HEVC                                                     █
█      FRAMERATE..........: 50.000 FPS                                               █
█      BITRATE............: 25.2 Mbps                                                █
█      RELEASE SIZE.......: 21.3 GiB                                                 █
█      RESOLUTION.........: 3840x2160 - 10-bit                                       █
█      ASPECT RATIO.......: 16:9                                                     █
█      AUDIO..............: Romanian @ Dolby Digital Audio - 2 channels / 224 Kbps   █
█      SOURCE.............: DIGI 4K                                                  █



* SCREENSHOTS *
  ----------  





* NOTES *
-----------

 Enjoy ! grin.gif
Category European Soccer
Rating N/A
Size 21.26 GB
Show/Hide Files
1 file