Torrent’s details
Name NBA.2022.05.20.Mavericks.vs.Warriors.1080p.60fps.WEB-DL.x264-shock | ENG | TNT |
Image
Description Information

Event: NBA.2022.05.20.Mavericks.vs.Warriors G2 WCF
NBALP Rip, seeding on a 10GB seedbox
Language: English
Ripper: shock a.k.a. anjaklama
Video: MPEG4 Video (H264) 1920x1080 59.94fps ~8MB/s
Audio: AAC 44100Hz stereo, 129 KB/s



Format : Matroska
Format version                 : Version 4
File size                      : 6.10 GiB
Overall bit rate               : 7 842 kb/s
Encoded date                   : UTC 2022-05-21 12:07:12
Writing application            : mkvmerge v67.0.0 ('Under Stars'wink.gif 64-bit
Writing library                : libebml v1.4.2 + libmatroska v1.6.4

Video
ID                             : 1
Format                         : AVC
Format/Info                    : Advanced Video Codec
Format profile                 : Main@L4.2
Format settings                : CABAC / 3 Ref Frames
Format settings, CABAC         : Yes
Format settings, Reference fra : 3 frames
Codec ID                       : V_MPEG4/ISO/AVC
Bit rate                       : 7 708 kb/s
Width                          : 1 920 pixels
Height                         : 1 080 pixels
Display aspect ratio           : 16:9
Frame rate mode                : Constant
Frame rate                     : 59.940 (60000/1001) FPS
Standard                       : Component
Color space                    : YUV
Chroma subsampling             : 4:2:0
Bit depth                      : 8 bits
Scan type                      : Progressive
Bits/(Pixel*Frame)             : 0.062
Stream size                    : 6.00 GiB (98%)
Default                        : Yes
Forced                         : No
Color range                    : Limited
Color primaries                : BT.709
Transfer characteristics       : BT.709
Matrix coefficients            : BT.709

Audio
ID                             : 2
Format                         : AAC LC
Format/Info                    : Advanced Audio Codec Low Complexity
Codec ID                       : A_AAC-2
Bit rate                       : 129 kb/s
Channel(s)                     : 2 channels
Channel layout                 : L R
Sampling rate                  : 44.1 kHz
Frame rate                     : 43.066 FPS (1024 SPF)
Compression mode               : Lossy
Stream size                    : 103 MiB (2%)
Language                       : English
Default                        : Yes
Forced                         : No
Category NBA/WNBA
Rating
Size 6.10 GB
Show/Hide Files
1 file