Torrent’s details
Name NBA RS 2011 Oklahoma City Thunder vs Phoenix Suns 06/03/2011 576iRu25fps I NTV+ Belyaev
Image
Description Translation: NBA TV+NTV Plus
Language: Russian
Commentator: Andrei Belyaev
No commercials
Full game

Complete name: J:2011-03-06.Thunder.vs.Suns.Russian.Belyaev.mpg
Format                                   : MPEG-PS
File size                                : 4.21 GiB
Duration                                 : 2 h 0 min
Overall bit rate mode                    : Variable
Overall bit rate                         : 4 989 kb/s
Writing library                          : (dvd5: Oct 19 2015)

Video
ID                                       : 224 (0xE0)
Format                                   : MPEG Video
Format version                           : Version 2
Format profile                           : Main@Main
Format settings                          : CustomMatrix / BVOP
Format settings, BVOP                    : Yes
Format settings, Matrix                  : Custom
Format settings, GOP                     : M=3, N=15
Format settings, picture structure       : Frame
Duration                                 : 2 h 0 min
Bit rate mode                            : Variable
Bit rate                                 : 4 634 kb/s
Maximum bit rate                         : 9 000 kb/s
Width                                    : 720 pixels
Height                                   : 576 pixels
Display aspect ratio                     : 4:3
Frame rate                               : 25.000 FPS
Standard                                 : PAL
Color space                              : YUV
Chroma subsampling                       : 4:2:0
Bit depth                                : 8 bits
Scan type                                : Interlaced
Scan order                               : Top Field First
Compression mode                         : Lossy
Bits/(Pixel*Frame)                       : 0.447
Time code of first frame                 : 00:00:00:00
Time code source                         : Group of pictures header
GOP, Open/Closed                         : Open
GOP, Open/Closed of first frame          : Closed
Stream size                              : 3.91 GiB (93%)
Writing library                          : (dvd5: Oct 19 2015)
Color primaries                          : BT.601 PAL
Transfer characteristics                 : BT.470 System B/G
Matrix coefficients                      : BT.470 System B/G

Audio
ID                                       : 189 (0xBD)-128 (0x80)
Format                                   : AC-3
Format/Info                              : Audio Coding 3
Commercial name                          : Dolby Digital
Muxing mode                              : DVD-Video
Duration                                 : 2 h 0 min
Bit rate mode                            : Constant
Bit rate                                 : 256 kb/s
Channel(s)                               : 2 channels
Channel layout                           : L R
Sampling rate                            : 48.0 kHz
Frame rate                               : 31.250 FPS (1536 SPF)
Bit depth                                : 16 bits
Compression mode                         : Lossy
Stream size                              : 221 MiB (5%)
Service kind                             : Complete Main
Category NBA/WNBA
Rating N/A
Size 4.21 GB
Show/Hide Files
1 file