Torrent’s details
Name La.Liga.2018.11.09.Levante.vs.Real.Sociedad.1080p.WEBRip.x264-VLF | ELEVEN
Image
Description La.Liga.2018.11.09.Levante.vs.Real.Sociedad.1080p.WEBRip.x264-VLF | ELEVEN

Do not re-upload elsewhere without permission!
This includes other torrent sites, Usenet, or even direct download links.




Network: ELEVEN Sport UK
Language: English
Notes: Full Match


Coming Soon

General
Complete name                            : LL.2018.11.09.Levante.vs.Real.Sociedad.ELEVEN.1080p-EN.mp4
Format                                   : MPEG-4
Format profile                           : Base Media
Codec ID                                 : isom (isom/iso2/avc1/mp41)
File size                                : 4.51 GiB
Duration                                 : 1h 50mn
Overall bit rate                         : 5 866 Kbps
Encoded date                             : UTC 1904-01-01 00:00:00
Tagged date                              : UTC 1904-01-01 00:00:00
Writing application                      : Lavf57.83.100

Video
ID                                       : 1
Format                                   : AVC
Format/Info                              : Advanced Video Codec
Format profile                           : Main@L4.1
Format settings, CABAC                   : Yes
Format settings, ReFrames                : 3 frames
Codec ID                                 : avc1
Codec ID/Info                            : Advanced Video Coding
Duration                                 : 1h 50mn
Bit rate                                 : 5 694 Kbps
Width                                    : 1 920 pixels
Height                                   : 1 080 pixels
Display aspect ratio                     : 16:9
Frame rate mode                          : Constant
Frame rate                               : 25.000 fps
Color space                              : YUV
Chroma subsampling                       : 4:2:0
Bit depth                                : 8 bits
Scan type                                : Progressive
Bits/(Pixel*Frame)                       : 0.110
Stream size                              : 4.38 GiB (97%)
Encoded date                             : UTC 1904-01-01 00:00:00
Tagged date                              : UTC 1904-01-01 00:00:00

Audio
ID                                       : 2
Format                                   : AAC
Format/Info                              : Advanced Audio Codec
Format profile                           : LC
Codec ID                                 : 40
Duration                                 : 1h 50mn
Bit rate mode                            : Constant
Bit rate                                 : 164 Kbps
Channel(s)                               : 2 channels
Channel positions                        : Front: L R
Sampling rate                            : 44.1 KHz
Frame rate                               : 43.066 fps (1024 spf)
Compression mode                         : Lossy
Stream size                              : 129 MiB (3%)
Default                                  : Yes
Alternate group                          : 1
Encoded date                             : UTC 1904-01-01 00:00:00
Tagged date                              : UTC 1904-01-01 00:00:00


Category La Liga
Rating N/A
Size 4.51 GB
Show/Hide Files
1 file