Torrent’s details
Name F1.2022.Round.20.Mexican.Weekend.SkyF1.1080P
Image
Description General
Unique ID                                : 132566915411527222267143147107592321433 (0x63BB758E4D647E18B52136157DB63999)
Complete name                            : 01.F1.2022.Round.20.Mexican.Drivers.Press.Conference.SkyF1HD.1080P.mkv
Format                                   : Matroska
Format version                           : Version 4
File size                                : 2.67 GiB
Duration                                 : 59 min 49 s
Overall bit rate mode                    : Variable
Overall bit rate                         : 6 397 kb/s
Encoded date                             : UTC 2022-10-27 20:35:01
Writing application                      : mkvmerge v71.1.0 ('Fortitude'wink.gif 64-bit
Writing library                          : libebml v1.4.4 + libmatroska v1.7.1

Video
ID                                       : 1
Format                                   : AVC
Format/Info                              : Advanced Video Codec
Format profile                           : High@L4
Format settings                          : CABAC / 3 Ref Frames
Format settings, CABAC                   : Yes
Format settings, Reference frames        : 3 frames
Format settings, GOP                     : M=1, N=50
Codec ID                                 : V_MPEG4/ISO/AVC
Duration                                 : 59 min 49 s
Bit rate mode                            : Variable
Bit rate                                 : 6 205 kb/s
Maximum bit rate                         : 7 200 kb/s
Width                                    : 1 920 pixels
Height                                   : 1 080 pixels
Display aspect ratio                     : 16:9
Frame rate mode                          : Constant
Frame rate                               : 25.000 FPS
Color space                              : YUV
Chroma subsampling                       : 4:2:0
Bit depth                                : 8 bits
Scan type                                : Progressive
Bits/(Pixel*Frame)                       : 0.120
Stream size                              : 2.59 GiB (97%)
Default                                  : Yes
Forced                                   : No
Color range                              : Limited
Color primaries                          : BT.709
Transfer characteristics                 : BT.709
Matrix coefficients                      : BT.709

Audio
ID                                       : 2
Format                                   : AAC LC
Format/Info                              : Advanced Audio Codec Low Complexity
Codec ID                                 : A_AAC-2
Duration                                 : 59 min 49 s
Bit rate                                 : 192 kb/s
Channel(s)                               : 2 channels
Channel layout                           : L R
Sampling rate                            : 48.0 kHz
Frame rate                               : 46.875 FPS (1024 SPF)
Compression mode                         : Lossy
Delay relative to video                  : -10 ms
Stream size                              : 81.0 MiB (3%)
Language                                 : English
Default                                  : Yes
Forced                                   : No

General
Unique ID                                : 301014755969190774351777120210276049087 (0xE275554E0F4F5E53F6AEF066C123E0BF)
Complete name                            : 02.F1.2022.Round.20.Mexican.F1.Show.SkyF1HD.1080P.mkv
Format                                   : Matroska
Format version                           : Version 4
File size                                : 2.38 GiB
Duration                                 : 42 min 49 s
Overall bit rate mode                    : Variable
Overall bit rate                         : 7 948 kb/s
Encoded date                             : UTC 2022-10-29 08:47:36
Writing application                      : mkvmerge v71.1.0 ('Fortitude'wink.gif 64-bit
Writing library                          : libebml v1.4.4 + libmatroska v1.7.1

Video
ID                                       : 1
Format                                   : AVC
Format/Info                              : Advanced Video Codec
Format profile                           : High@L4.1
Format settings                          : CABAC / 4 Ref Frames
Format settings, CABAC                   : Yes
Format settings, Reference frames        : 4 frames
Codec ID                                 : V_MPEG4/ISO/AVC
Duration                                 : 42 min 49 s
Bit rate mode                            : Variable
Bit rate                                 : 7 831 kb/s
Width                                    : 1 920 pixels
Height                                   : 1 080 pixels
Display aspect ratio                     : 16:9
Frame rate mode                          : Constant
Frame rate                               : 25.000 FPS
Standard                                 : Component
Color space                              : YUV
Chroma subsampling                       : 4:2:0
Bit depth                                : 8 bits
Scan type                                : Progressive
Bits/(Pixel*Frame)                       : 0.151
Stream size                              : 2.34 GiB (98%)
Default                                  : Yes
Forced                                   : No
Color range                              : Limited
Color primaries                          : BT.709
Transfer characteristics                 : BT.709
Matrix coefficients                      : BT.709

Audio
ID                                       : 2
Format                                   : AAC LC
Format/Info                              : Advanced Audio Codec Low Complexity
Codec ID                                 : A_AAC-2
Duration                                 : 42 min 49 s
Bit rate                                 : 125 kb/s
Channel(s)                               : 2 channels
Channel layout                           : L R
Sampling rate                            : 48.0 kHz
Frame rate                               : 46.875 FPS (1024 SPF)
Compression mode                         : Lossy
Delay relative to video                  : -16 ms
Stream size                              : 38.4 MiB (2%)
Language                                 : English
Default                                  : Yes
Forced                                   : No

General
Unique ID                                : 158754685515927435968255502584720307249 (0x776F0A4EC96820786E45CEEB7472B431)
Complete name                            : 03.F1.2022.Round.20.Mexican.Free.Practice.One.SkyF1HD.1080P.mkv
Format                                   : Matroska
Format version                           : Version 4
File size                                : 4.30 GiB
Duration                                 : 1 h 17 min
Overall bit rate mode                    : Variable
Overall bit rate                         : 7 947 kb/s
Encoded date                             : UTC 2022-10-29 08:48:03
Writing application                      : mkvmerge v71.1.0 ('Fortitude'wink.gif 64-bit
Writing library                          : libebml v1.4.4 + libmatroska v1.7.1

Video
ID                                       : 1
Format                                   : AVC
Format/Info                              : Advanced Video Codec
Format profile                           : High@L4.1
Format settings                          : CABAC / 4 Ref Frames
Format settings, CABAC                   : Yes
Format settings, Reference frames        : 4 frames
Codec ID                                 : V_MPEG4/ISO/AVC
Duration                                 : 1 h 17 min
Bit rate mode                            : Variable
Bit rate                                 : 7 831 kb/s
Width                                    : 1 920 pixels
Height                                   : 1 080 pixels
Display aspect ratio                     : 16:9
Frame rate mode                          : Constant
Frame rate                               : 25.000 FPS
Standard                                 : Component
Color space                              : YUV
Chroma subsampling                       : 4:2:0
Bit depth                                : 8 bits
Scan type                                : Progressive
Bits/(Pixel*Frame)                       : 0.151
Stream size                              : 4.23 GiB (98%)
Default                                  : Yes
Forced                                   : No
Color range                              : Limited
Color primaries                          : BT.709
Transfer characteristics                 : BT.709
Matrix coefficients                      : BT.709

Audio
ID                                       : 2
Format                                   : AAC LC
Format/Info                              : Advanced Audio Codec Low Complexity
Codec ID                                 : A_AAC-2
Duration                                 : 1 h 17 min
Bit rate                                 : 125 kb/s
Channel(s)                               : 2 channels
Channel layout                           : L R
Sampling rate                            : 48.0 kHz
Frame rate                               : 46.875 FPS (1024 SPF)
Compression mode                         : Lossy
Delay relative to video                  : -8 ms
Stream size                              : 69.4 MiB (2%)
Language                                 : English
Default                                  : Yes
Forced                                   : No

General
Unique ID                                : 220442654725604269941246416872971424103 (0xA5D7B6027FA4EBBDD248F8B8C0D3D167)
Complete name                            : 04.F1.2022.Round.20.Mexican.Free.Practice.Two.SkyF1HD.1080P.mkv
Format                                   : Matroska
Format version                           : Version 4
File size                                : 5.36 GiB
Duration                                 : 1 h 36 min
Overall bit rate mode                    : Variable
Overall bit rate                         : 7 950 kb/s
Encoded date                             : UTC 2022-10-29 01:36:56
Writing application                      : mkvmerge v71.1.0 ('Fortitude'wink.gif 64-bit
Writing library                          : libebml v1.4.4 + libmatroska v1.7.1

Video
ID                                       : 1
Format                                   : AVC
Format/Info                              : Advanced Video Codec
Format profile                           : High@L4.1
Format settings                          : CABAC / 4 Ref Frames
Format settings, CABAC                   : Yes
Format settings, Reference frames        : 4 frames
Codec ID                                 : V_MPEG4/ISO/AVC
Duration                                 : 1 h 36 min
Bit rate mode                            : Variable
Bit rate                                 : 7 831 kb/s
Width                                    : 1 920 pixels
Height                                   : 1 080 pixels
Display aspect ratio                     : 16:9
Frame rate mode                          : Constant
Frame rate                               : 25.000 FPS
Standard                                 : Component
Color space                              : YUV
Chroma subsampling                       : 4:2:0
Bit depth                                : 8 bits
Scan type                                : Progressive
Bits/(Pixel*Frame)                       : 0.151
Stream size                              : 5.27 GiB (98%)
Default                                  : Yes
Forced                                   : No
Color range                              : Limited
Color primaries                          : BT.709
Transfer characteristics                 : BT.709
Matrix coefficients                      : BT.709

Audio
ID                                       : 2
Format                                   : AAC LC
Format/Info                              : Advanced Audio Codec Low Complexity
Codec ID                                 : A_AAC-2
Duration                                 : 1 h 36 min
Bit rate                                 : 125 kb/s
Channel(s)                               : 2 channels
Channel layout                           : L R
Sampling rate                            : 48.0 kHz
Frame rate                               : 46.875 FPS (1024 SPF)
Compression mode                         : Lossy
Delay relative to video                  : -6 ms
Stream size                              : 86.5 MiB (2%)
Language                                 : English
Default                                  : Yes
Forced                                   : No

General
Unique ID                                : 43008614087951031040228661111660215095 (0x205B2863DE181C0A2EFD00635A73FB37)
Complete name                            : 05.F1.2022.Round.20.Mexican.Free.Practice.Three.SkyF1HD.1080P.mkv
Format                                   : Matroska
Format version                           : Version 4
File size                                : 3.40 GiB
Duration                                 : 1 h 17 min
Overall bit rate mode                    : Variable
Overall bit rate                         : 6 308 kb/s
Encoded date                             : UTC 2022-10-29 18:16:06
Writing application                      : mkvmerge v71.1.0 ('Fortitude'wink.gif 64-bit
Writing library                          : libebml v1.4.4 + libmatroska v1.7.1

Video
ID                                       : 1
Format                                   : AVC
Format/Info                              : Advanced Video Codec
Format profile                           : High@L4
Format settings                          : CABAC / 3 Ref Frames
Format settings, CABAC                   : Yes
Format settings, Reference frames        : 3 frames
Format settings, GOP                     : M=1, N=50
Codec ID                                 : V_MPEG4/ISO/AVC
Duration                                 : 1 h 17 min
Bit rate mode                            : Variable
Bit rate                                 : 6 116 kb/s
Maximum bit rate                         : 7 200 kb/s
Width                                    : 1 920 pixels
Height                                   : 1 080 pixels
Display aspect ratio                     : 16:9
Frame rate mode                          : Constant
Frame rate                               : 25.000 FPS
Color space                              : YUV
Chroma subsampling                       : 4:2:0
Bit depth                                : 8 bits
Scan type                                : Progressive
Bits/(Pixel*Frame)                       : 0.118
Stream size                              : 3.30 GiB (97%)
Default                                  : Yes
Forced                                   : No
Color range                              : Limited
Color primaries                          : BT.709
Transfer characteristics                 : BT.709
Matrix coefficients                      : BT.709

Audio
ID                                       : 2
Format                                   : AAC LC
Format/Info                              : Advanced Audio Codec Low Complexity
Codec ID                                 : A_AAC-2
Duration                                 : 1 h 17 min
Bit rate                                 : 192 kb/s
Channel(s)                               : 2 channels
Channel layout                           : L R
Sampling rate                            : 48.0 kHz
Frame rate                               : 46.875 FPS (1024 SPF)
Compression mode                         : Lossy
Delay relative to video                  : -8 ms
Stream size                              : 105 MiB (3%)
Language                                 : English
Default                                  : Yes
Forced                                   : No

General
Unique ID                                : 330951647060167210039794416839378191320 (0xF8FAF7FE25F68892E7C1FCAF5135C3Dcool1.gif
Complete name                            : 06.F1.2022.Round.20.Mexican.Qualifying.SkyF1HD.1080P.mkv
Format                                   : Matroska
Format version                           : Version 4
File size                                : 6.56 GiB
Duration                                 : 2 h 27 min
Overall bit rate mode                    : Variable
Overall bit rate                         : 6 348 kb/s
Encoded date                             : UTC 2022-10-29 22:39:20
Writing application                      : mkvmerge v71.1.0 ('Fortitude'wink.gif 64-bit
Writing library                          : libebml v1.4.4 + libmatroska v1.7.1

Video
ID                                       : 1
Format                                   : AVC
Format/Info                              : Advanced Video Codec
Format profile                           : High@L4
Format settings                          : CABAC / 3 Ref Frames
Format settings, CABAC                   : Yes
Format settings, Reference frames        : 3 frames
Format settings, GOP                     : M=1, N=50
Codec ID                                 : V_MPEG4/ISO/AVC
Duration                                 : 2 h 27 min
Bit rate mode                            : Variable
Bit rate                                 : 6 156 kb/s
Maximum bit rate                         : 7 200 kb/s
Width                                    : 1 920 pixels
Height                                   : 1 080 pixels
Display aspect ratio                     : 16:9
Frame rate mode                          : Constant
Frame rate                               : 25.000 FPS
Color space                              : YUV
Chroma subsampling                       : 4:2:0
Bit depth                                : 8 bits
Scan type                                : Progressive
Bits/(Pixel*Frame)                       : 0.119
Stream size                              : 6.36 GiB (97%)
Default                                  : Yes
Forced                                   : No
Color range                              : Limited
Color primaries                          : BT.709
Transfer characteristics                 : BT.709
Matrix coefficients                      : BT.709

Audio
ID                                       : 2
Format                                   : AAC LC
Format/Info                              : Advanced Audio Codec Low Complexity
Codec ID                                 : A_AAC-2
Duration                                 : 2 h 27 min
Bit rate                                 : 192 kb/s
Channel(s)                               : 2 channels
Channel layout                           : L R
Sampling rate                            : 48.0 kHz
Frame rate                               : 46.875 FPS (1024 SPF)
Compression mode                         : Lossy
Delay relative to video                  : -19 ms
Stream size                              : 200 MiB (3%)
Language                                 : English
Default                                  : Yes
Forced                                   : No

General
Unique ID                                : 79349135570610470858385675254876380362 (0x3BB2166EA2C2CE733D5E0FEF86789CCA)
Complete name                            : 07.F1.2022.Round.20.Mexican.Teds.Qualifying.Notebook.SkyF1HD.1080P.mkv
Format                                   : Matroska
Format version                           : Version 4
File size                                : 1.23 GiB
Duration                                 : 26 min 58 s
Overall bit rate mode                    : Variable
Overall bit rate                         : 6 510 kb/s
Encoded date                             : UTC 2022-10-29 22:41:05
Writing application                      : mkvmerge v71.1.0 ('Fortitude'wink.gif 64-bit
Writing library                          : libebml v1.4.4 + libmatroska v1.7.1

Video
ID                                       : 1
Format                                   : AVC
Format/Info                              : Advanced Video Codec
Format profile                           : High@L4
Format settings                          : CABAC / 3 Ref Frames
Format settings, CABAC                   : Yes
Format settings, Reference frames        : 3 frames
Format settings, GOP                     : M=1, N=50
Codec ID                                 : V_MPEG4/ISO/AVC
Duration                                 : 26 min 58 s
Bit rate mode                            : Variable
Bit rate                                 : 6 318 kb/s
Maximum bit rate                         : 7 200 kb/s
Width                                    : 1 920 pixels
Height                                   : 1 080 pixels
Display aspect ratio                     : 16:9
Frame rate mode                          : Constant
Frame rate                               : 25.000 FPS
Color space                              : YUV
Chroma subsampling                       : 4:2:0
Bit depth                                : 8 bits
Scan type                                : Progressive
Bits/(Pixel*Frame)                       : 0.122
Stream size                              : 1.19 GiB (97%)
Default                                  : Yes
Forced                                   : No
Color range                              : Limited
Color primaries                          : BT.709
Transfer characteristics                 : BT.709
Matrix coefficients                      : BT.709

Audio
ID                                       : 2
Format                                   : AAC LC
Format/Info                              : Advanced Audio Codec Low Complexity
Codec ID                                 : A_AAC-2
Duration                                 : 26 min 58 s
Bit rate                                 : 192 kb/s
Channel(s)                               : 2 channels
Channel layout                           : L R
Sampling rate                            : 48.0 kHz
Frame rate                               : 46.875 FPS (1024 SPF)
Compression mode                         : Lossy
Delay relative to video                  : -11 ms
Stream size                              : 36.5 MiB (3%)
Language                                 : English
Default                                  : Yes
Forced                                   : No

Category Formula1
Rating N/A
Size 25.90 GB
Show/Hide Files
7 files