Torrent’s details
Name Ufc.fight.night.226.gane.vs.spivak.1080p.web.h264
Image
Description Ufc.fight.night.226.gane.vs.spivak.1080p.web.h264
General
Unique ID                                : 102727723313014286859212267274189639918 (0x4D48A3CCDD2D196E2FFA25A6ACCF90EE)
Complete name                            : C:UserskrizoDesktopstahov√°n√≠1sport1sportUFC.Fight.Night.226.Gane.vs.Spivak.1080p.WEB.h264-VERUMUfc fight night 226 gane vs spivak 1080p web h264.mkv
Format                                   : Matroska
Format version                           : Version 4
File size                                : 7.68 GiB
Duration                                 : 2 h 59 min
Overall bit rate                         : 6 118 kb/s
Encoded date                             : UTC 2023-09-03 15:11:15
Writing application                      : mkvmerge v30.1.0 ('Forever And More'wink.gif 64-bit
Writing library                          : libebml v1.3.6 + libmatroska v1.4.9

Video
ID                                       : 1
Format                                   : AVC
Format/Info                              : Advanced Video Codec
Format profile                           : High@L4.2
Format settings                          : CABAC / 4 Ref Frames
Format settings, CABAC                   : Yes
Format settings, Reference frames        : 4 frames
Codec ID                                 : V_MPEG4/ISO/AVC
Duration                                 : 2 h 59 min
Bit rate                                 : 5 922 kb/s
Width                                    : 1 920 pixels
Height                                   : 1 080 pixels
Display aspect ratio                     : 16:9
Frame rate mode                          : Constant
Frame rate                               : 30.000 FPS
Color space                              : YUV
Chroma subsampling                       : 4:2:0
Bit depth                                : 8 bits
Scan type                                : Progressive
Bits/(Pixel*Frame)                       : 0.095
Stream size                              : 7.43 GiB (97%)
Writing library                          : x264 core 148 r2643 5c65704
Encoding settings                        : cabac=1 / ref=1 / deblock=1:0:0 / analyse=0x3:0x113 / me=hex / subme=2 / psy=1 / psy_rd=1.00:0.00 / mixed_ref=0 / me_range=16 / chroma_me=1 / trellis=0 / 8x8dct=1 / cqm=0 / deadzone=21,11 / fast_pskip=1 / chroma_qp_offset=0 / threads=24 / lookahead_threads=8 / sliced_threads=0 / nr=0 / decimate=1 / interlaced=0 / bluray_compat=0 / constrained_intra=0 / bframes=2 / b_pyramid=2 / b_adapt=1 / b_bias=0 / direct=1 / weightb=1 / open_gop=0 / weightp=1 / keyint=60 / keyint_min=31 / scenecut=0 / intra_refresh=0 / rc_lookahead=10 / rc=crf / mbtree=1 / crf=23.0 / qcomp=0.60 / qpmin=0 / qpmax=69 / qpstep=4 / vbv_maxrate=7808 / vbv_bufsize=15616 / crf_max=0.0 / nal_hrd=none / filler=0 / ip_ratio=1.40 / aq=1:1.00
Default                                  : Yes
Forced                                   : No

Audio
ID                                       : 2
Format                                   : AAC LC
Format/Info                              : Advanced Audio Codec Low Complexity
Codec ID                                 : A_AAC-2
Duration                                 : 2 h 59 min
Bit rate                                 : 192 kb/s
Channel(s)                               : 2 channels
Channel layout                           : L R
Sampling rate                            : 48.0 kHz
Frame rate                               : 46.875 FPS (1024 SPF)
Compression mode                         : Lossy
Stream size                              : 248 MiB (3%)
Default                                  : Yes
Forced                                   : No

Category MMA
Rating N/A
Size 7.68 GB
Show/Hide Files
1 file