Torrent’s details
Name Liverpool FC Season Review 2007-08 XviD 352p
Description Format                                   : AVI
Format/Info                              : Audio Video Interleave
Format profile                           : OpenDML
File size                                : 2.82 GiB
Duration                                 : 2 h 56 min
Overall bit rate                         : 2 295 kb/s
Writing application                      : MediaCoder 0.6

Video
ID                                       : 0
Format                                   : MPEG-4 Visual
Format profile                           : Advanced Simple@L5
Format settings                          : GMC3
Format settings, BVOP                    : No
Format settings, QPel                    : No
Format settings, GMC                     : 3 warppoints
Format settings, Matrix                  : Default (H.263)
Codec ID                                 : XVID
Codec ID/Hint                            : XviD
Duration                                 : 2 h 56 min
Bit rate                                 : 2 156 kb/s
Width                                    : 624 pixels
Height                                   : 352 pixels
Display aspect ratio                     : 16:9
Original display aspect ratio            : 16:9
Frame rate                               : 25.000 FPS
Color space                              : YUV
Chroma subsampling                       : 4:2:0
Bit depth                                : 8 bits
Scan type                                : Progressive
Compression mode                         : Lossy
Bits/(Pixel*Frame)                       : 0.393
Stream size                              : 2.65 GiB (94%)
Writing library                          : XviD 1.2.0.dev47 (UTC 2006-11-01)

Audio
ID                                       : 1
Format                                   : MPEG Audio
Format version                           : Version 1
Format profile                           : Layer 3
Format settings                          : Joint stereo / MS Stereo
Codec ID                                 : 55
Codec ID/Hint                            : MP3
Duration                                 : 2 h 56 min
Bit rate mode                            : Constant
Bit rate                                 : 128 kb/s
Channel(s)                               : 2 channels
Sampling rate                            : 44.1 kHz
Compression mode                         : Lossy
Stream size                              : 161 MiB (6%)
Alignment                                : Aligned on interleaves
Interleave, duration                     : 26  ms (0.65 video frame)
Interleave, preload duration             : 522  ms
Writing library                          : LAME3.98
Category European Soccer
Rating N/A
Size 2.82 GB
Show/Hide Files
1 file