Torrent’s details
Name Bundesliga 2022 1899 Hoffenheim vs Bayern M√ľnchen 2160p UHDTV HEVC | GER
Image
Description
Quote:
General
Unique ID                                : 5051726224232712725250523861118205575 (0x3CCED5527A3024A923EA48078E9BE87)
Complete name                            :Fussball.1.Bundesliga.2021-2022.26.Spieltag.1899.Hoffenheim.vs.FC.Bayern.Muenchen.German.2160p.UHDTV.HEVC-SPORTY.mkv
Format                                   : Matroska
Format version                           : Version 4
File size                                : 17.7 GiB
Duration                                 : 1 h 47 min
Overall bit rate                         : 23.4 Mb/s
Encoded date                             : UTC 2022-03-18 23:02:40
Writing application                      : TMPGEnc MPEG Smart Renderer 5 Version 5.0.24.30
Writing library                          : TMPGEnc MPEG Smart Renderer 5 Version 5.0.24.30

Video
ID                                       : 1
Format                                   : HEVC
Format/Info                              : High Efficiency Video Coding
Format profile                           : Main 10@L5.1@Main
Codec ID                                 : V_MPEGH/ISO/HEVC
Duration                                 : 1 h 47 min
Bit rate                                 : 22.5 Mb/s
Width                                    : 3 840 pixels
Height                                   : 2 160 pixels
Display aspect ratio                     : 16:9
Frame rate mode                          : Constant
Frame rate                               : 50.000 FPS
Standard                                 : Component
Color space                              : YUV
Chroma subsampling                       : 4:2:0
Bit depth                                : 10 bits
Bits/(Pixel*Frame)                       : 0.054
Stream size                              : 16.9 GiB (96%)
Default                                  : Yes
Forced                                   : No
Color range                              : Limited
Color primaries                          : BT.2020
Transfer characteristics                 : BT.2020 (10-bit)
Matrix coefficients                      : BT.2020 non-constant

Audio #1
ID                                       : 2
Format                                   : AC-3
Format/Info                              : Audio Coding 3
Commercial name                          : Dolby Digital
Codec ID                                 : A_AC3
Duration                                 : 1 h 47 min
Bit rate mode                            : Constant
Bit rate                                 : 384 kb/s
Channel(s)                               : 6 channels
Channel layout                           : L R C LFE Ls Rs
Sampling rate                            : 48.0 kHz
Frame rate                               : 31.250 FPS (1536 SPF)
Compression mode                         : Lossy
Stream size                              : 297 MiB (2%)
Service kind                             : Complete Main
Default                                  : Yes
Forced                                   : No

Audio #2
ID                                       : 3
Format                                   : AC-3
Format/Info                              : Audio Coding 3
Commercial name                          : Dolby Digital
Codec ID                                 : A_AC3
Duration                                 : 1 h 47 min
Bit rate mode                            : Constant
Bit rate                                 : 128 kb/s
Channel(s)                               : 2 channels
Channel layout                           : L R
Sampling rate                            : 48.0 kHz
Frame rate                               : 31.250 FPS (1536 SPF)
Compression mode                         : Lossy
Stream size                              : 98.8 MiB (1%)
Service kind                             : Complete Main
Default                                  : No
Forced                                   : No



Category European Soccer
Rating N/A
Size 17.67 GB
Show/Hide Files
1 file