Torrent’s details
Name NBA.2020-01-12 Miami Heat @ New York Knicks.720p.30fps.MSG
Image
Description






Format                         : MPEG-4
Format profile                 : Base Media
Codec ID                       : isom (isom/iso2/avc1/mp41)
File size                      : 7.18 GiB
Duration                       : 3 h 41 min
Overall bit rate mode          : Constant
Overall bit rate               : 4 636 kb/s
Writing application            : Lavf58.7.100

Video
ID                             : 1
Format                         : AVC
Format/Info                    : Advanced Video Codec
Format profile                 : Main@L3.2
Format settings, CABAC         : Yes
Format settings, RefFrames     : 4 frames
Codec ID                       : avc1
Codec ID/Info                  : Advanced Video Coding
Duration                       : 3 h 41 min
Bit rate mode                  : Constant
Bit rate                       : 4 500 kb/s
Width                          : 1 280 pixels
Height                         : 720 pixels
Display aspect ratio           : 16:9
Frame rate mode                : Variable
Frame rate                     : 29.970 (29970/1000) FPS
Minimum frame rate             : 6.506 FPS
Maximum frame rate             : 29.970 FPS
Original frame rate            : 29.970 (30000/1001) FPS
Color space                    : YUV
Chroma subsampling             : 4:2:0
Bit depth                      : 8 bits
Scan type                      : Progressive
Bits/(Pixel*Frame)             : 0.163
Stream size                    : 6.97 GiB (97%)

Audio
ID                             : 2
Format                         : AAC
Format/Info                    : Advanced Audio Codec
Format profile                 : LC
Codec ID                       : 40
Duration                       : 3 h 41 min
Source duration                : 3 h 41 min
Bit rate mode                  : Constant
Bit rate                       : 126 kb/s
Channel(s)                     : 2 channels
Channel positions              : Front: L R
Sampling rate                  : 44.1 kHz
Frame rate                     : 43.066 FPS (1024 SPF)
Compression mode               : Lossy
Stream size                    : 199 MiB (3%)
Source stream size             : 199 MiB (3%)
Default                        : Yes
Alternate group                : 1
Category NBA/WNBA
Rating N/A
Size 5.33 GB
Show/Hide Files
1 file