Torrent’s details
Name NBA.RS.11.18.2023.Thunder@Warriors.1080p25fps.MIGU
Image
Description Language: Chinese
Broadcast:China Migu Sports TV (NBC Sports Bay Area source)

General
Complete name                  : NBA.RS.11.18.2023.Thunder@Warriors.1080p25fps.MIGU.mp4
Format                         : MPEG-4
Format profile                 : Base Media
Codec ID                       : isom (isom/iso2/avc1/mp41)
File size                      : 7.35 GiB
Duration                       : 2 h 9 min
Overall bit rate mode          : Constant
Overall bit rate               : 8 137 kb/s
Frame rate                     : 25.000 FPS
Writing application            : Lavf59.16.100

Video
ID                             : 1
Format                         : AVC
Format/Info                    : Advanced Video Codec
Format profile                 : High@L4
Format settings                : CABAC / 4 Ref Frames
Format settings, CABAC         : Yes
Format settings, Reference fra : 4 frames
Format settings, GOP           : M=3, N=25
Codec ID                       : avc1
Codec ID/Info                  : Advanced Video Coding
Duration                       : 2 h 9 min
Source duration                : 2 h 9 min
Bit rate mode                  : Constant
Bit rate                       : 8 002 kb/s
Width                          : 1 920 pixels
Height                         : 1 080 pixels
Display aspect ratio           : 16:9
Frame rate mode                : Variable
Frame rate                     : 25.000 FPS
Minimum frame rate             : 1.645 FPS
Maximum frame rate             : 25.000 FPS
Color space                    : YUV
Chroma subsampling             : 4:2:0
Bit depth                      : 8 bits
Scan type                      : Progressive
Bits/(Pixel*Frame)             : 0.154
Stream size                    : 7.22 GiB (98%)
Source stream size             : 7.22 GiB (98%)
Codec configuration box        : avcC

Audio
ID                             : 2
Format                         : AAC LC
Format/Info                    : Advanced Audio Codec Low Complexity
Codec ID                       : mp4a-40-2
Duration                       : 2 h 9 min
Bit rate mode                  : Constant
Bit rate                       : 128 kb/s
Channel(s)                     : 2 channels
Channel layout                 : L R
Sampling rate                  : 48.0 kHz
Frame rate                     : 46.875 FPS (1024 SPF)
Compression mode               : Lossy
Stream size                    : 118 MiB (2%)
Default                        : Yes
Alternate group                : 1
Category NBA
Rating
Size 7.35 GB
Show/Hide Files
1 file