Torrent’s details
Name SC Featured 2019.08.24 Dog Tales 720p ESPN WEB-DL AAC2.0 H.264-KiMCHi
Description
Quote:
This release is sourced from ESPN and is not transcoded, just remuxed from the direct stream.



General
Unique ID                                : 122271438421886648629167018931713083059 (0x5BFC9F5989E40062645681AF6B3A06B3)
Complete name                            : SC.Featured.2019.08.24.Dog.Tales.720p.ESPN.WEB-DL.AAC2.0.H.264-KiMCHi.mkv
Format                                   : Matroska
Format version                           : Version 4
File size                                : 1.53 GiB
Duration                                 : 49 min 3 s
Overall bit rate mode                    : Variable
Overall bit rate                         : 4 452 kb/s
Movie name                               : SC Featured - Dog Tales [2019.08.24] 720p ESPN WEB-DL - KiMCHi
Encoded date                             : UTC 2020-08-27 06:42:03
Writing application                      : mkvmerge v32.0.0 ('Astral Progressions'wink.gif 64-bit
Writing library                          : libebml v1.3.7 + libmatroska v1.5.0

Video
ID                                       : 1
Format                                   : AVC
Format/Info                              : Advanced Video Codec
Format profile                           : High@L3.2
Format settings                          : CABAC / 1 Ref Frames
Format settings, CABAC                   : Yes
Format settings, Reference frames        : 1 frame
Codec ID                                 : V_MPEG4/ISO/AVC
Duration                                 : 49 min 3 s
Bit rate mode                            : Variable
Bit rate                                 : 4 321 kb/s
Maximum bit rate                         : 9 000 kb/s
Width                                    : 1 280 pixels
Height                                   : 720 pixels
Display aspect ratio                     : 16:9
Frame rate mode                          : Variable
Frame rate                               : 58.121 FPS
Original frame rate                      : 60.000 FPS
Color space                              : YUV
Chroma subsampling                       : 4:2:0
Bit depth                                : 8 bits
Scan type                                : Progressive
Bits/(Pixel*Frame)                       : 0.081
Stream size                              : 1.48 GiB (97%)
Language                                 : English
Default                                  : Yes
Forced                                   : No
Color range                              : Limited
Color primaries                          : BT.709
Transfer characteristics                 : BT.709
Matrix coefficients                      : BT.709

Audio
ID                                       : 2
Format                                   : AAC LC SBR
Format/Info                              : Advanced Audio Codec Low Complexity with Spectral Band Replication
Commercial name                          : HE-AAC
Format settings                          : Implicit
Codec ID                                 : A_AAC-2
Duration                                 : 49 min 3 s
Bit rate                                 : 127 kb/s
Channel(s)                               : 2 channels
Channel layout                           : L R
Sampling rate                            : 48.0 kHz
Frame rate                               : 23.438 FPS (2048 SPF)
Compression mode                         : Lossy
Delay relative to video                  : -13 ms
Stream size                              : 44.5 MiB (3%)
Language                                 : English
Default                                  : Yes
Forced                                   : No
Category Documentary
Rating N/A
Size 1.53 GB
Show/Hide Files
1 file