Torrent’s details
Name Roland Garros Semi Final 2019 Roger Federer vs Rafael Nadal 07 06 2019 1080p | RUS/EGN
Description Format                      : Matroska
Format version              : Version 4 / Version 2
File size                   : 4.89 GiB
Duration                    : 2h 13mn
Overall bit rate            : 5 238 Kbps
Writing application         : Lavf57.25.100
Writing library             : Lavf57.25.100

Video
ID                          : 1
Format                      : AVC
Format/Info                 : Advanced Video Codec
Format profile              : High@L4
Format settings, CABAC      : Yes
Format settings, ReFrames   : 4 frames
Format settings, GOP        : M=3, N=15
Codec ID                    : V_MPEG4/ISO/AVC
Duration                    : 2h 13mn
Bit rate                    : 4 750 Kbps
Width                       : 1 920 pixels
Height                      : 1 080 pixels
Display aspect ratio        : 16:9
Frame rate mode             : Constant
Frame rate                  : 25.000 fps
Standard                    : Component
Color space                 : YUV
Chroma subsampling          : 4:2:0
Bit depth                   : 8 bits
Scan type                   : MBAFF
Scan order                  : Top Field First
Bits/(Pixel*Frame)          : 0.092
Stream size                 : 4.43 GiB (91%)
Default                     : Yes
Forced                      : No
Color range                 : Limited
Color primaries             : BT.709
Transfer characteristics    : BT.709
Matrix coefficients         : BT.709
DURATION                    : 02:13:33.782000000

Audio #1
ID                          : 2
Format                      : MPEG Audio
Format version              : Version 1
Format profile              : Layer 2
Codec ID                    : A_MPEG/L2
Codec ID/Hint               : MP2
Duration                    : 2h 13mn
Bit rate mode               : Constant
Bit rate                    : 192 Kbps
Channel(s)                  : 2 channels
Sampling rate               : 48.0 KHz
Compression mode            : Lossy
Delay relative to video     : 2ms
Stream size                 : 183 MiB (4%)
Language                    : Russian
Default                     : Yes
Forced                      : No
DURATION                    : 02:13:33.744000000

Audio #2
ID                          : 3
Format                      : MPEG Audio
Format version              : Version 1
Format profile              : Layer 2
Codec ID                    : A_MPEG/L2
Codec ID/Hint               : MP2
Duration                    : 2h 13mn
Bit rate mode               : Constant
Bit rate                    : 192 Kbps
Channel(s)                  : 2 channels
Sampling rate               : 48.0 KHz
Compression mode            : Lossy
Delay relative to video     : 2ms
Stream size                 : 183 MiB (4%)
Language                    : English
Default                     : Yes
Forced                      : No
DURATION                    : 02:13:33.744000000

Category Tennis
Rating N/A
Size 4.89 GB
Show/Hide Files
1 file