Torrent’s details
Name RPL 2021-2022. Matchday 03. FC Ufa - Lokomotiv Moscow HDTVRip 720p RUS
Image
Description RPL 2021-2022. Matchday 03. FC Ufa - Lokomotiv Moscow HDTVRip 720p



Help the uploader for his effort Please Click Here Thanks.



[u]
Visit my blog
[u]

General
Unique ID                                : 72861586837196684936313515996096106592 (0x36D0A1959259F8DFDF16D7184FD61060)
Complete name                            : G:Fotbaly lig v evropÄ›RPL 2021-2022. Matchday 03. FC Ufa - Lokomotiv Moscow HDTVRip 720p.mkv
Format                                   : Matroska
Format version                           : Version 2
File size                                : 3.15 GiB
Duration                                 : 1h 45mn
Overall bit rate                         : 4 258 Kbps
Writing application                      : Lavf54.63.104
Writing library                          : Lavf54.63.104

Video
ID                                       : 1
Format                                   : AVC
Format/Info                              : Advanced Video Codec
Format profile                           : High@L3.2
Format settings, CABAC                   : Yes
Format settings, ReFrames                : 4 frames
Format settings, GOP                     : M=2, N=15
Codec ID                                 : V_MPEG4/ISO/AVC
Duration                                 : 1h 45mn
Bit rate                                 : 4 046 Kbps
Width                                    : 1 280 pixels
Height                                   : 720 pixels
Display aspect ratio                     : 16:9
Frame rate mode                          : Constant
Frame rate                               : 50.000 fps
Color space                              : YUV
Chroma subsampling                       : 4:2:0
Bit depth                                : 8 bits
Scan type                                : Progressive
Bits/(Pixel*Frame)                       : 0.088
Stream size                              : 2.99 GiB (95%)
Default                                  : No
Forced                                   : No

Audio
ID                                       : 2
Format                                   : AC-3
Format/Info                              : Audio Coding 3
Mode extension                           : CM (complete main)
Format settings, Endianness              : Big
Codec ID                                 : A_AC3
Duration                                 : 1h 45mn
Bit rate mode                            : Constant
Bit rate                                 : 128 Kbps
Channel(s)                               : 2 channels
Channel positions                        : Front: L R
Sampling rate                            : 48.0 KHz
Compression mode                         : Lossy
Stream size                              : 97.0 MiB (3%)
Language                                 : Russian
Default                                  : Yes
Forced                                   : No

Category European Soccer
Rating N/A
Size 3.15 GB
Show/Hide Files
1 file