Torrent’s details
Name Peyton's Places S03E02 Helmet Cars 720p ESPN WEB-DL AAC2.0 H.264-KiMCHi
Image
Description
Quote:
[align=center]This release is sourced from ESPN and is not transcoded.[/align]



General
Unique ID                                : 195371265954116598105747719444977540572 (0x92FB231B6F92A6034B3569951B4DDDDC)
Complete name                            : Peytons.Places.S03E02.Helmet.Cars.720p.ESPN.WEB-DL.AAC2.0.H.264-KiMCHi.mkv
Format                                   : Matroska
Format version                           : Version 4
File size                                : 758 MiB
Duration                                 : 19 min 0 s
Overall bit rate mode                    : Variable
Overall bit rate                         : 5 578 kb/s
Movie name                               : Peyton's Places - Helmet Cars [S03E02] 720p ESPN WEB-DL - KiMCHi
Encoded date                             : UTC 2022-11-06 03:39:13
Writing application                      : mkvmerge v66.0.0 ('Josie'wink.gif 64-bit
Writing library                          : libebml v1.4.2 + libmatroska v1.6.4

Video
ID                                       : 1
Format                                   : AVC
Format/Info                              : Advanced Video Codec
Format profile                           : High@L4
Format settings                          : CABAC / 4 Ref Frames
Format settings, CABAC                   : Yes
Format settings, Reference frames        : 4 frames
Codec ID                                 : V_MPEG4/ISO/AVC
Duration                                 : 19 min 0 s
Bit rate mode                            : Variable
Bit rate                                 : 5 449 kb/s
Maximum bit rate                         : 6 840 kb/s
Width                                    : 1 280 pixels
Height                                   : 720 pixels
Display aspect ratio                     : 16:9
Frame rate mode                          : Constant
Frame rate                               : 59.940 (60000/1001) FPS
Color space                              : YUV
Chroma subsampling                       : 4:2:0
Bit depth                                : 8 bits
Scan type                                : Progressive
Bits/(Pixel*Frame)                       : 0.099
Stream size                              : 741 MiB (98%)
Default                                  : Yes
Forced                                   : No
Color range                              : Limited
Color primaries                          : BT.709
Transfer characteristics                 : BT.709
Matrix coefficients                      : BT.709

Audio
ID                                       : 2
Format                                   : AAC LC
Format/Info                              : Advanced Audio Codec Low Complexity
Codec ID                                 : A_AAC-2
Duration                                 : 19 min 0 s
Bit rate                                 : 125 kb/s
Channel(s)                               : 2 channels
Channel layout                           : L R
Sampling rate                            : 48.0 kHz
Frame rate                               : 46.875 FPS (1024 SPF)
Compression mode                         : Lossy
Delay relative to video                  : 4 ms
Stream size                              : 17.0 MiB (2%)
Language                                 : English
Default                                  : Yes
Forced                                   : No
Category Documentary
Rating N/A
Size 758.20 MB
Show/Hide Files
1 file