Torrent’s details
Name Race To Perfection S01E06 Great F1 Teams 1080p HDTV 50fps H264 | smcgill1969 / SkyDocsHD
Image
Description Race To Perfection

The exclusive series takes a look behind the scenes over the past 70 years of
Formula 1, in partnership with the iconic sport, to celebrate the landmark date
in its history.

____________________

Episode Name: Great F1 Teams
Season: 1
Episode: 6
Aired: 2020-10-17

Episode Overview:
F1 has always seen periods of domination from teams. This episode looks at
who created them, who their champion drivers were and how they became so
successful? These are the great F1 teams who will forever be associated with
the sport.

____________________

General
Complete name : S01E06.Formula.1.The.Race.To.Perfection.mp4
Format : MPEG-4
Format profile : Base Media
Codec ID : isom (isom/iso2/avc1/mp41)
File size : 2.92 GiB
Duration : 1 h 6 min
Overall bit rate mode : Variable
Overall bit rate : 6 237 kb/s
Encoded date : UTC 1904-01-01 00:00:00
Tagged date : UTC 1904-01-01 00:00:00
Writing application : Lavf58.17.101

Video
ID : 1
Format : AVC
Format/Info : Advanced Video Codec
Format profile : High@L4.2
Format settings, CABAC : Yes
Format settings, ReFrames : 2 frames
Format settings, GOP : M=3, N=24
Codec ID : avc1
Codec ID/Info : Advanced Video Coding
Duration : 1 h 6 min
Duration_FirstFrame : 5 ms
Bit rate mode : Variable
Bit rate : 5 976 kb/s
Maximum bit rate : 12.4 Mb/s
Width : 1 920 pixels
Height : 1 080 pixels
Original height : 1 088 pixels
Display aspect ratio : 16:9
Original display aspect ratio : 16:9
Frame rate mode : Constant
Frame rate : 50.000 FPS
Color space : YUV
Chroma subsampling : 4:2:0
Bit depth : 8 bits
Scan type : Progressive
Bits/(Pixel*Frame) : 0.058
Stream size : 2.79 GiB (96%)
Language : English
Encoded date : UTC 1904-01-01 00:00:00
Tagged date : UTC 1904-01-01 00:00:00

Audio
ID : 2
Format : AAC
Format/Info : Advanced Audio Codec
Format profile : LC
Codec ID : 40
Duration : 1 h 6 min
Bit rate mode : Variable
Bit rate : 252 kb/s
Maximum bit rate : 256 kb/s
Channel(s) : 2 channels
Channel positions : Front: L R
Sampling rate : 48.0 kHz
Frame rate : 46.875 FPS (1024 spf)
Compression mode : Lossy
Stream size : 121 MiB (4%)
Language : English
Default : Yes
Alternate group : 1
Encoded date : UTC 1904-01-01 00:00:00
Tagged date : UTC 1904-01-01 00:00:00

Respect to Mr. McGill! cool2.gif drunk.gif sleep.gif
Category Documentary
Rating N/A
Size 2.92 GB
Show/Hide Files
1 file