Torrent’s details
Name Cricket.T20.Blast.2018.09.15.Semi.Final.Lancashire.vs.Worcestershire.720p.WEBRip.x264-VLF | SKY (EN)
Image
Description Cricket.T20.Blast.2018.09.15.Semi.Final.Lancashire.vs.Worcestershire.720p.WEBRip.x264-VLF | SKY (EN)

Do not re-upload elsewhere without permission!
This includes other torrent sites, Usenet, or even direct download links.




Network: Sky Sports
Language: English
Notes: Full Match


Coming Soon

General
Complete name                            : Cricket.T20.Blast.2018.09.15.SF1.Lancashire.vs.Worcestershire.SKY.720p-EN.mp4
Format                                   : MPEG-4
Format profile                           : Base Media
Codec ID                                 : isom (isom/iso2/avc1/mp41)
File size                                : 4.48 GiB
Duration                                 : 3h 21mn
Overall bit rate mode                    : Variable
Overall bit rate                         : 3 188 Kbps
Encoded date                             : UTC 1904-01-01 00:00:00
Tagged date                              : UTC 1904-01-01 00:00:00
Writing application                      : Lavf57.83.100

Video
ID                                       : 1
Format                                   : AVC
Format/Info                              : Advanced Video Codec
Format profile                           : High@L3.1
Format settings, CABAC                   : Yes
Format settings, ReFrames                : 4 frames
Codec ID                                 : avc1
Codec ID/Info                            : Advanced Video Coding
Duration                                 : 3h 21mn
Bit rate                                 : 3 047 Kbps
Width                                    : 1 280 pixels
Height                                   : 720 pixels
Display aspect ratio                     : 16:9
Frame rate mode                          : Variable
Frame rate                               : 30.000 fps
Minimum frame rate                       : 0.242 fps
Maximum frame rate                       : 39.474 fps
Color space                              : YUV
Chroma subsampling                       : 4:2:0
Bit depth                                : 8 bits
Scan type                                : Progressive
Bits/(Pixel*Frame)                       : 0.110
Stream size                              : 4.28 GiB (96%)
Encoded date                             : UTC 1904-01-01 00:00:00
Tagged date                              : UTC 1904-01-01 00:00:00

Audio
ID                                       : 2
Format                                   : AAC
Format/Info                              : Advanced Audio Codec
Format profile                           : LC
Codec ID                                 : 40
Duration                                 : 3h 21mn
Bit rate mode                            : Variable
Bit rate                                 : 132 Kbps
Maximum bit rate                         : 146 Kbps
Channel(s)                               : 2 channels
Channel positions                        : Front: L R
Sampling rate                            : 48.0 KHz
Frame rate                               : 46.875 fps (1024 spf)
Compression mode                         : Lossy
Stream size                              : 189 MiB (4%)
Language                                 : English
Default                                  : Yes
Alternate group                          : 1
Encoded date                             : UTC 1904-01-01 00:00:00
Tagged date                              : UTC 1904-01-01 00:00:00


Category Cricket
Rating N/A
Size 4.48 GB
Show/Hide Files
1 file