Torrent’s details
Name NCAAM 2023.01.05 Utah-Oregon St PAC12 HD Replay
Description Video
ID                                       : 1
Format                                   : AVC
Format/Info                              : Advanced Video Codec
Format profile                           : High@L4.1
Format settings                          : CABAC / 4 Ref Frames
Format settings, CABAC                   : Yes
Format settings, RefFrames               : 4 frames
Format settings, GOP                     : M=4, N=60
Codec ID                                 : avc1
Codec ID/Info                            : Advanced Video Coding
Duration                                 : 1 h 16 min
Source duration                          : 1 h 16 min
Bit rate mode                            : Variable
Bit rate                                 : 4 534 kb/s
Maximum bit rate                         : 4 600 kb/s
Width                                    : 1 920 pixels
Height                                   : 1 088 pixels
Original height                          : 1 080 pixels
Display aspect ratio                     : 16:9
Original display aspect ratio            : 16:9
Frame rate mode                          : Variable
Frame rate                               : 29.970 (30000/1001) FPS
Minimum frame rate                       : 29.441 FPS
Maximum frame rate                       : 30.333 FPS
Standard                                 : Component
Color space                              : YUV
Chroma subsampling                       : 4:2:0
Bit depth                                : 8 bits
Scan type                                : Progressive
Bits/(Pixel*Frame)                       : 0.072
Stream size                              : 2.42 GiB (98%)
Source stream size                       : 2.42 GiB (98%)
Language                                 : English
Encoded date                             : UTC 2023-01-06 13:46:09
Tagged date                              : UTC 2023-01-06 13:46:09
Color range                              : Limited
Color primaries                          : BT.709
Transfer characteristics                 : BT.709
Matrix coefficients                      : BT.709
mdhd_Duration                            : 4590553

Audio
ID                                       : 2
Format                                   : AAC
Format/Info                              : Advanced Audio Codec
Format profile                           : HE-AAC / LC
Format settings                          : Implicit
Codec ID                                 : mp4a-40-2
Duration                                 : 1 h 16 min
Source duration                          : 1 h 16 min
Bit rate mode                            : Variable
Bit rate                                 : 62.7 kb/s
Maximum bit rate                         : 98.8 kb/s
Channel(s)                               : 2 channels
Channel positions                        : Front: L R
Sampling rate                            : 48.0 kHz / 24.0 kHz
Frame rate                               : 23.438 FPS (1024 SPF)
Compression mode                         : Lossy
Stream size                              : 34.3 MiB (1%)
Source stream size                       : 34.3 MiB (1%)
Language                                 : English
Category NCAA Basket/Football
Rating N/A
Size 3.06 GB
Show/Hide Files
2 files