Torrent’s details
Name UFC.239.720p.WEB-DL.H264.Fight
Description UFC.239.720p.WEB-DL.H264.Fight


Help the uploader for his effort Please Click Here Thanks.





Visit my blog



Code
General
Complete name                            : G:StahováníUFC.239.720p.WEB-DL.H264.Fight-BB.mp4
Format                                   : MPEG-4
Format profile                           : Base Media
Codec ID                                 : isom
File size                                : 5.33 GiB
Duration                                 : 2h 56mn
Overall bit rate                         : 4 337 Kbps
Writing application                      : Lavf58.12.100

Video
ID                                       : 1
Format                                   : AVC
Format/Info                              : Advanced Video Codec
Format profile                           : Main@L4
Format settings, CABAC                   : Yes
Format settings, ReFrames                : 3 frames
Codec ID                                 : avc1
Codec ID/Info                            : Advanced Video Coding
Duration                                 : 2h 56mn
Bit rate                                 : 4 197 Kbps
Width                                    : 1 280 pixels
Height                                   : 720 pixels
Display aspect ratio                     : 16:9
Frame rate mode                          : Constant
Frame rate                               : 29.970 fps
Color space                              : YUV
Chroma subsampling                       : 4:2:0
Bit depth                                : 8 bits
Scan type                                : Progressive
Bits/(Pixel*Frame)                       : 0.152
Stream size                              : 5.16 GiB (97%)

Audio
ID                                       : 2
Format                                   : AAC
Format/Info                              : Advanced Audio Codec
Format profile                           : LC
Codec ID                                 : 40
Duration                                 : 2h 56mn
Bit rate mode                            : Constant
Bit rate                                 : 130 Kbps
Channel(s)                               : 2 channels
Channel positions                        : Front: L R
Sampling rate                            : 44.1 KHz
Compression mode                         : Lossy
Stream size                              : 163 MiB (3%)



Category MMA
Rating N/A
Size 5.33 GB
Show/Hide Files
1 file