Torrent’s details
Name UCL Final 20170604 Juventus vs Real Madrid 1080i SNG
Description
Quote:
General
ID                             : 8900 (0x22C4)
Complete name                  : UCL Final 20170604 Juventus vs Real Madrid 1080i SNG.ts
Format                         : MPEG-TS
File size                      : 125 GiB
Duration                       : 7 h 17 min
Overall bit rate mode          : Variable
Overall bit rate               : 41.0 Mb/s
Frame rate                     : 25.000 FPS

Video
ID                             : 512 (0x200)
Menu ID                        : 1 (0x1)
Format                         : AVC
Format/Info                    : Advanced Video Codec
Format profile                 : High 4:2:2@L4
Format settings                : 3 Ref Frames
Format settings, CABAC         : No
Format settings, Reference fra : 3 frames
Format settings, Slice count   : 2 slices per frame
Codec ID                       : 27
Duration                       : 7 h 17 min
Bit rate mode                  : Variable
Bit rate                       : 33.9 Mb/s
Maximum bit rate               : 34.7 Mb/s
Width                          : 1 920 pixels
Height                         : 1 080 pixels
Display aspect ratio           : 16:9
Frame rate                     : 25.000 FPS
Color space                    : YUV
Chroma subsampling             : 4:2:2
Bit depth                      : 8 bits
Scan type                      : Interlaced
Scan type, store method        : Separated fields
Scan order                     : Top Field First
Bits/(Pixel*Frame)             : 0.654
Stream size                    : 104 GiB (83%)
Color range                    : Limited
Color primaries                : BT.709
Transfer characteristics       : BT.709
Matrix coefficients            : BT.709

Audio #1
ID                             : 4112 (0x1010)
Menu ID                        : 1 (0x1)
Format                         : MPEG Audio
Format version                 : Version 1
Format profile                 : Layer 2
Format settings                : Dual mono
Codec ID                       : 3
Duration                       : 7 h 17 min
Bit rate mode                  : Constant
Bit rate                       : 384 kb/s
Channel(s)                     : 2 channels
Sampling rate                  : 48.0 kHz
Frame rate                     : 41.667 FPS (1152 SPF)
Compression mode               : Lossy
Delay relative to video        : -516 ms
Stream size                    : 1.17 GiB (1%)

Audio #2
ID                             : 4128 (0x1020)
Menu ID                        : 1 (0x1)
Format                         : MPEG Audio
Format version                 : Version 1
Format profile                 : Layer 2
Format settings                : Dual mono
Codec ID                       : 3
Duration                       : 7 h 17 min
Bit rate mode                  : Constant
Bit rate                       : 384 kb/s
Channel(s)                     : 2 channels
Sampling rate                  : 48.0 kHz
Frame rate                     : 41.667 FPS (1152 SPF)
Compression mode               : Lossy
Delay relative to video        : -516 ms
Stream size                    : 1.17 GiB (1%)

Audio #3
ID                             : 4144 (0x1030)-1
Menu ID                        : 1 (0x1)
Format                         : Dolby E
Format settings                : Little
Muxing mode                    : SMPTE ST 302 / SMPTE ST 337
Codec ID                       : 6
Duration                       : 7 h 17 min
Bit rate mode                  : Constant
Bit rate                       : 1 291 kb/s
Channel(s)                     : 6 channels
Channel layout                 : L C Ls X R LFE Rs X
Sampling rate                  : 48.0 kHz
Frame rate                     : 25.000 FPS (1920 SPF)
Bit depth                      : 20 bits
Delay relative to video        : -521 ms
Stream size                    : 3.94 GiB (3%)
Title                          : UCL 5.1 CAR  

Audio #4
ID                             : 4144 (0x1030)-2
Menu ID                        : 1 (0x1)
Format                         : Dolby E
Format settings                : Little
Muxing mode                    : SMPTE ST 302 / SMPTE ST 337
Codec ID                       : 6
Duration                       : 7 h 17 min
Bit rate mode                  : Constant
Bit rate                       : 505 kb/s
Channel(s)                     : 2 channels
Channel layout                 : X X X L X X X R
Sampling rate                  : 48.0 kHz
Frame rate                     : 25.000 FPS (1920 SPF)
Bit depth                      : 20 bits
Delay relative to video        : -521 ms
Stream size                    : 1.54 GiB (1%)
Title                          : Program 2

Audio #5
ID                             : 4160 (0x1040)
Menu ID                        : 1 (0x1)
Format                         : MPEG Audio
Format version                 : Version 1
Format profile                 : Layer 2
Format settings                : Dual mono
Codec ID                       : 3
Duration                       : 7 h 17 min
Bit rate mode                  : Constant
Bit rate                       : 384 kb/s
Channel(s)                     : 2 channels
Sampling rate                  : 48.0 kHz
Frame rate                     : 41.667 FPS (1152 SPF)
Compression mode               : Lossy
Delay relative to video        : -516 ms
Stream size                    : 1.17 GiB (1%)

Audio #6
ID                             : 4176 (0x1050)
Menu ID                        : 1 (0x1)
Format                         : MPEG Audio
Format version                 : Version 1
Format profile                 : Layer 2
Format settings                : Dual mono
Codec ID                       : 3
Duration                       : 7 h 17 min
Bit rate mode                  : Constant
Bit rate                       : 384 kb/s
Channel(s)                     : 2 channels
Sampling rate                  : 48.0 kHz
Frame rate                     : 41.667 FPS (1152 SPF)
Compression mode               : Lossy
Delay relative to video        : -516 ms
Stream size                    : 1.17 GiB (1%)

Audio #7
ID                             : 4192 (0x1060)
Menu ID                        : 1 (0x1)
Format                         : MPEG Audio
Format version                 : Version 1
Format profile                 : Layer 2
Format settings                : Dual mono
Codec ID                       : 3
Duration                       : 7 h 17 min
Bit rate mode                  : Constant
Bit rate                       : 384 kb/s
Channel(s)                     : 2 channels
Sampling rate                  : 48.0 kHz
Frame rate                     : 41.667 FPS (1152 SPF)
Compression mode               : Lossy
Delay relative to video        : -516 ms
Stream size                    : 1.17 GiB (1%)

Audio #8
ID                             : 4208 (0x1070)
Menu ID                        : 1 (0x1)
Format                         : MPEG Audio
Format version                 : Version 1
Format profile                 : Layer 2
Format settings                : Dual mono
Codec ID                       : 3
Duration                       : 7 h 17 min
Bit rate mode                  : Constant
Bit rate                       : 384 kb/s
Channel(s)                     : 2 channels
Sampling rate                  : 48.0 kHz
Frame rate                     : 41.667 FPS (1152 SPF)
Compression mode               : Lossy
Delay relative to video        : -516 ms
Stream size                    : 1.17 GiB (1%)

Audio #9
ID                             : 4224 (0x1080)
Menu ID                        : 1 (0x1)
Format                         : MPEG Audio
Format version                 : Version 1
Format profile                 : Layer 2
Format settings                : Dual mono
Codec ID                       : 3
Duration                       : 7 h 17 min
Bit rate mode                  : Constant
Bit rate                       : 384 kb/s
Channel(s)                     : 2 channels
Sampling rate                  : 48.0 kHz
Frame rate                     : 41.667 FPS (1152 SPF)
Compression mode               : Lossy
Delay relative to video        : -516 ms
Stream size                    : 1.17 GiB (1%)





Category European Soccer
Rating N/A
Size 125.14 GB
Show/Hide Files
1 file