Torrent’s details
Name Formula1 2022 British Grand Prix 2160p UHDTV AAC2 0 H 265 playTV SKY EN | RO
Description Formula1.2022.British.Grand.Prix.2160p.UHDTV.AAC2.0.H.265-playTV

General
Unique ID                                : 326540467443351647417391084640885362731 (0xF5A9680BD1879B43D0FCB021F059502B)
Complete name                            : Formula1.2022.British.Grand.Prix.2160p.UHDTV.AAC2.0.H.265-playTV.mkv
Format                                   : Matroska
Format version                           : Version 4
File size                                : 29.8 GiB
Duration                                 : 2 h 52 min
Overall bit rate                         : 24.7 Mb/s
Encoded date                             : UTC 2022-07-03 17:40:21
Writing application                      : mkvmerge v53.0.0 ('Fool's Gold'wink.gif 64-bit
Writing library                          : libebml v1.4.1 + libmatroska v1.6.2

Video
ID                                       : 1
Format                                   : HEVC
Format/Info                              : High Efficiency Video Coding
Format profile                           : Main 10@L5.1@High
Codec ID                                 : V_MPEGH/ISO/HEVC
Duration                                 : 2 h 51 min
Bit rate                                 : 24.6 Mb/s
Width                                    : 3 840 pixels
Height                                   : 2 160 pixels
Display aspect ratio                     : 16:9
Frame rate mode                          : Constant
Frame rate                               : 50.000 FPS
Standard                                 : Component
Color space                              : YUV
Chroma subsampling                       : 4:2:0 (Type 0)
Bit depth                                : 10 bits
Bits/(Pixel*Frame)                       : 0.059
Stream size                              : 29.4 GiB (99%)
Default                                  : Yes
Forced                                   : No
Color range                              : Limited
Color primaries                          : BT.709
Transfer characteristics                 : BT.709
Matrix coefficients                      : BT.709

Audio #1
ID                                       : 2
Format                                   : AAC LC
Format/Info                              : Advanced Audio Codec Low Complexity
Codec ID                                 : A_AAC-2
Duration                                 : 2 h 52 min
Bit rate                                 : 192 kb/s
Channel(s)                               : 2 channels
Channel layout                           : L R
Sampling rate                            : 48.0 kHz
Frame rate                               : 46.875 FPS (1024 SPF)
Compression mode                         : Lossy
Stream size                              : 233 MiB (1%)
Title                                    : F1 TV / SKY Sports F1 - Audio Track
Language                                 : English
Default                                  : Yes
Forced                                   : No

Audio #2
ID                                       : 3
Format                                   : AAC LC
Format/Info                              : Advanced Audio Codec Low Complexity
Codec ID                                 : A_AAC-2
Duration                                 : 2 h 51 min
Bit rate                                 : 125 kb/s
Channel(s)                               : 2 channels
Channel layout                           : L R
Sampling rate                            : 48.0 kHz
Frame rate                               : 46.875 FPS (1024 SPF)
Compression mode                         : Lossy
Delay relative to video                  : -40 ms
Stream size                              : 154 MiB (1%)
Title                                    : Digi 4K - Audio Track
Language                                 : Romanian
Default                                  : No
Forced                                   : No
Category Formula1
Rating N/A
Size 29.82 GB
Show/Hide Files
1 file