Torrent’s details
Name Eredivisie.Highlights.2019.09.02.720p.WEBRip.x264-VLF
Image
Description Eredivisie.Highlights.2019.09.02.720p.WEBRip.x264-VLF

Release Details
Network: Fox Sports NL
Language: Dutch
Notes: Highlights Show

Do not re-upload elsewhere without permission!
This includes other torrent sites, Usenet, direct download links, etc.

Media Info:
General
Complete name                            : EDL.HI.2019.09.02.FSNL.720p-NL.mp4
Format                                   : MPEG-4
Format profile                           : Base Media
Codec ID                                 : isom (isom/iso2/avc1/mp41)
File size                                : 851 MiB
Duration                                 : 55mn 28s
Overall bit rate mode                    : Variable
Overall bit rate                         : 2 145 Kbps
Encoded date                             : UTC 1904-01-01 00:00:00
Tagged date                              : UTC 1904-01-01 00:00:00
Writing application                      : Lavf57.83.100

Video
ID                                       : 1
Format                                   : AVC
Format/Info                              : Advanced Video Codec
Format profile                           : Main@L3.1
Format settings, CABAC                   : No
Format settings, ReFrames                : 1 frame
Format settings, GOP                     : M=1, N=40
Codec ID                                 : avc1
Codec ID/Info                            : Advanced Video Coding
Duration                                 : 55mn 28s
Bit rate mode                            : Variable
Bit rate                                 : 2 016 Kbps
Maximum bit rate                         : 6 000 Kbps
Width                                    : 1 280 pixels
Height                                   : 720 pixels
Display aspect ratio                     : 16:9
Frame rate mode                          : Constant
Frame rate                               : 25.000 fps
Color space                              : YUV
Chroma subsampling                       : 4:2:0
Bit depth                                : 8 bits
Scan type                                : Progressive
Bits/(Pixel*Frame)                       : 0.087
Stream size                              : 800 MiB (94%)
Encoded date                             : UTC 1904-01-01 00:00:00
Tagged date                              : UTC 1904-01-01 00:00:00

Audio
ID                                       : 2
Format                                   : AAC
Format/Info                              : Advanced Audio Codec
Format profile                           : LC
Codec ID                                 : 40
Duration                                 : 55mn 28s
Bit rate mode                            : Constant
Bit rate                                 : 125 Kbps
Channel(s)                               : 2 channels
Channel positions                        : Front: L R
Sampling rate                            : 48.0 KHz
Frame rate                               : 46.875 fps (1024 spf)
Compression mode                         : Lossy
Stream size                              : 49.7 MiB (6%)
Language                                 : Dutch
Default                                  : Yes
Alternate group                          : 1
Encoded date                             : UTC 1904-01-01 00:00:00
Tagged date                              : UTC 1904-01-01 00:00:00


Category European Soccer
Rating N/A
Size 851.28 MB
Show/Hide Files
1 file





[ Queries: 24|0 ] - [ Script Execution: 0.0047 sec. ] - [ GZIP: disabled ]