Torrent’s details
Name MLB 2024 Toronto Blue Jays vs Houston Astros 01 04 720pEN60fps | SCHN-KBME
Image
Description Home Radio Feed added as Track 2

Format                                   : Matroska
Format version                           : Version 4
File size                                : 5.52 GiB
Duration                                 : 2 h 20 min
Overall bit rate                         : 5 645 kb/s
Frame rate                               : 59.940 FPS
Encoded date                             : 2024-04-02 06:44:52 UTC
Writing application                      : mkvmerge v78.0 ('Running'wink.gif 64-bit
Writing library                          : libebml v1.4.4 + libmatroska v1.7.1 / Lavf60.21.101

Video
ID                                       : 1
Format                                   : AVC
Format/Info                              : Advanced Video Codec
Format profile                           : High@L4.1
Format settings                          : CABAC / 4 Ref Frames
Format settings, CABAC                   : Yes
Format settings, Reference frames        : 4 frames
Codec ID                                 : V_MPEG4/ISO/AVC
Duration                                 : 2 h 20 min
Bit rate mode                            : Constant
Bit rate                                 : 5 472 kb/s
Width                                    : 1 280 pixels
Height                                   : 720 pixels
Display aspect ratio                     : 16:9
Frame rate mode                          : Constant
Frame rate                               : 59.940 (60000/1001) FPS
Color space                              : YUV
Chroma subsampling                       : 4:2:0
Bit depth                                : 8 bits
Scan type                                : Progressive
Bits/(Pixel*Frame)                       : 0.099
Time code of first frame                 : 00:00:08;25
Stream size                              : 5.35 GiB (97%)
Default                                  : No
Forced                                   : No

Audio #1
ID                                       : 2
Format                                   : AAC LC
Format/Info                              : Advanced Audio Codec Low Complexity
Codec ID                                 : A_AAC-2
Duration                                 : 2 h 20 min
Bit rate                                 : 125 kb/s
Channel(s)                               : 2 channels
Channel layout                           : L R
Sampling rate                            : 48.0 kHz
Frame rate                               : 46.875 FPS (1024 SPF)
Compression mode                         : Lossy
Delay relative to video                  : 6 ms
Stream size                              : 126 MiB (2%)
Default                                  : Yes
Forced                                   : No

Audio #2
ID                                       : 3
Format                                   : AAC LC
Format/Info                              : Advanced Audio Codec Low Complexity
Codec ID                                 : A_AAC-2
Duration                                 : 2 h 20 min
Bit rate                                 : 45.4 kb/s
Channel(s)                               : 1 channel
Channel layout                           : M
Sampling rate                            : 48.0 kHz
Frame rate                               : 46.875 FPS (1024 SPF)
Compression mode                         : Lossy
Delay relative to video                  : 12 ms
Stream size                              : 45.5 MiB (1%)
Default                                  : No
Forced                                   : No

Category MLB/Baseball
Rating
Size 5.52 GB
Show/Hide Files
1 file