Torrent’s details
Name 1998 World Cup Final - France vs Brazil (2 Versions)
Description Version 1 = English game commentary, pre-game in Russian (media info below says Russian audio but this is only for pre-game)
All credits to taggert







Code
General
Unique ID                      : 173084242056222107970273812438046451721 (0x8236CFFDE32E514F8B93B54F5C9FA809)
Complete name                  : Z:SPORTSFUTBOLINTERNATIONALWORLD CUP1998 World Cup980712.WC.64.Final.Brazil.-.France.(eng).mkv
Format                         : Matroska
Format version                 : Version 4 / Version 2
File size                      : 5.95 GiB
Duration                       : 2 h 55 min
Overall bit rate mode          : Variable
Overall bit rate               : 4 857 kb/s
Encoded date                   : UTC 2020-04-25 06:27:41
Writing application            : mkvmerge v40.0.0 ('Old Town Road + Pony'wink.gif 64-bit
Writing library                : libebml v1.3.9 + libmatroska v1.5.2

Video
ID                             : 1
Format                         : MPEG Video
Format version                 : Version 2
Format profile                 : Main@Main
Format settings, BVOP          : Yes
Format settings, Matrix        : Custom
Format settings, GOP           : M=3, N=15
Format settings, picture struc : Frame
Codec ID                       : V_MPEG2
Codec ID/Info                  : MPEG 1 or 2 Video
Duration                       : 2 h 55 min
Bit rate mode                  : Variable
Bit rate                       : 4 661 kb/s
Maximum bit rate               : 9 800 kb/s
Width                          : 720 pixels
Height                         : 576 pixels
Display aspect ratio           : 4:3
Frame rate mode                : Constant
Frame rate                     : 25.000 FPS
Standard                       : PAL
Color space                    : YUV
Chroma subsampling             : 4:2:0
Bit depth                      : 8 bits
Scan type                      : Interlaced
Scan order                     : Top Field First
Compression mode               : Lossy
Bits/(Pixel*Frame)             : 0.450
Time code of first frame       : 00:00:00:00
Time code source               : Group of pictures header
GOP, Open/Closed               : Closed
Stream size                    : 5.71 GiB (96%)
Default                        : Yes
Forced                         : No
Color primaries                : BT.601 PAL
Transfer characteristics       : BT.470 System B, BT.470 System G
Matrix coefficients            : BT.601

Audio
ID                             : 2
Format                         : AC-3
Format/Info                    : Audio Coding 3
Format settings, Endianness    : Big
Codec ID                       : A_AC3
Duration                       : 2 h 55 min
Bit rate mode                  : Constant
Bit rate                       : 192 kb/s
Channel(s)                     : 2 channels
Channel positions              : Front: L R
Sampling rate                  : 48.0 kHz
Frame rate                     : 31.250 FPS (1536 SPF)
Bit depth                      : 16 bits
Compression mode               : Lossy
Stream size                    : 241 MiB (4%)
Language                       : Russian
Service kind                   : Complete Main
Default                        : Yes
Forced                         : No




Version 2 = French commentary, rebroadcast on French TV






Code
General
Complete name                  : Z:SPORTSFUTBOLINTERNATIONALWORLD CUP1998 World Cup1998-07-12 Français 720p HD 50FPS - France vs. Bresil Première + Deuxième Mi-Temps.mp4
Format                         : MPEG-4
Format profile                 : Base Media
Codec ID                       : isom (isom/iso2/avc1/mp41)
File size                      : 3.16 GiB
Duration                       : 2 h 3 min
Overall bit rate               : 3 655 kb/s
Writing application            : Lavf57.77.100

Video
ID                             : 1
Format                         : AVC
Format/Info                    : Advanced Video Codec
Format profile                 : Main@L3.2
Format settings, CABAC         : Yes
Format settings, RefFrames     : 4 frames
Codec ID                       : avc1
Codec ID/Info                  : Advanced Video Coding
Duration                       : 2 h 3 min
Duration_FirstFrame            : 20 ms
Bit rate                       : 3 517 kb/s
Width                          : 1 280 pixels
Height                         : 720 pixels
Display aspect ratio           : 16:9
Frame rate mode                : Constant
Frame rate                     : 50.000 FPS
Color space                    : YUV
Chroma subsampling             : 4:2:0
Bit depth                      : 8 bits
Scan type                      : Progressive
Bits/(Pixel*Frame)             : 0.076
Stream size                    : 3.04 GiB (96%)

Audio
ID                             : 2
Format                         : AAC
Format/Info                    : Advanced Audio Codec
Format profile                 : LC
Codec ID                       : 40
Duration                       : 2 h 3 min
Bit rate mode                  : Constant
Bit rate                       : 128 kb/s
Channel(s)                     : 2 channels
Channel positions              : Front: L R
Sampling rate                  : 48.0 kHz
Frame rate                     : 46.875 FPS (1024 SPF)
Compression mode               : Lossy
Stream size                    : 113 MiB (4%)
Default                        : Yes
Alternate group                : 1



Category International Soccer
Rating N/A
Size 9.12 GB
Show/Hide Files
2 files