Torrent’s details
Name Uefa Euro 2020 Wales vs Switzerland 12/06 576p BG Audio CeC0Rip
Description Format                      : Matroska
Format version              : Version 4 / Version 2
File size                   : 2.34 GiB
Duration                    : 1h 53mn
Overall bit rate mode       : Variable
Overall bit rate            : 2 961 Kbps
Writing application         : VideoReDo (Lavf58.29.100)
Writing library             : VideoReDo (Lavf58.29.100)

Video
ID                          : 1
Format                      : MPEG Video
Format version              : Version 2
Format profile              : Main@Main
Format settings, BVOP       : Yes
Format settings, Matrix     : Custom
Format settings, GOP        : M=3, N=25
Format settings, picture st : Frame
Codec ID                    : V_MPEG2
Codec ID/Info               : MPEG 1 or 2 Video
Duration                    : 1h 53mn
Bit rate mode               : Variable
Bit rate                    : 2 774 Kbps
Maximum bit rate            : 6 000 Kbps
Width                       : 720 pixels
Height                      : 576 pixels
Display aspect ratio        : 16:9
Active Format Description   : Letterbox 16:9 image
Frame rate mode             : Constant
Frame rate                  : 25.000 fps
Standard                    : PAL
Color space                 : YUV
Chroma subsampling          : 4:2:0
Bit depth                   : 8 bits
Scan type                   : Interlaced
Scan order                  : Top Field First
Compression mode            : Lossy
Bits/(Pixel*Frame)          : 0.268
Stream size                 : 2.19 GiB (94%)
Default                     : No
Forced                      : No
Color primaries             : BT.601 PAL
Transfer characteristics    : BT.470 System B, BT.470 System G
Matrix coefficients         : FCC 73.682
DURATION                    : 01:53:07.120000000

Audio
ID                          : 2
Format                      : MPEG Audio
Format version              : Version 1
Format profile              : Layer 2
Codec ID                    : A_MPEG/L2
Codec ID/Hint               : MP2
Duration                    : 1h 53mn
Bit rate mode               : Constant
Bit rate                    : 128 Kbps
Channel(s)                  : 2 channels
Sampling rate               : 48.0 KHz
Compression mode            : Lossy
Delay relative to video     : 6ms
Stream size                 : 104 MiB (4%)
Language                    : Bulgarian
Default                     : Yes
Forced                      : No
DURATION                    : 01:53:07.182000000

Menu
00:00:00.000                : :Chapter 1
00:58:46.359                : :Chapter 2
Category European Soccer
Rating N/A
Size 2.34 GB
Show/Hide Files
1 file