Torrent’s details
Name UFC.230.Cormier.vs.Lewis.HDTV.ENG.03.11.2018
Description UFC.230.Cormier.vs.Lewis.HDTV.ENG.03.11.2018




Help the uploader for his effort Please Click Here Thanks.





Visit my blog



Visit my forum






Code
General
Complete name                            : G:StahováníUFC.230.Cormier.vs.Lewis.HDTV.x264-Star[TGx]UFC.230.Cormier.vs.Lewis.HDTV.mp4
Format                                   : MPEG-4
Format profile                           : Base Media / Version 2
Codec ID                                 : mp42
File size                                : 1.74 GiB
Duration                                 : 2h 49mn
Overall bit rate mode                    : Variable
Overall bit rate                         : 1 465 Kbps
Encoded date                             : UTC 2018-11-04 05:28:46
Tagged date                              : UTC 2018-11-04 05:28:46
Writing application                      : HandBrake 1.1.2 2018090500

Video
ID                                       : 1
Format                                   : AVC
Format/Info                              : Advanced Video Codec
Format profile                           : High@L3.1
Format settings, CABAC                   : Yes
Format settings, ReFrames                : 4 frames
Codec ID                                 : avc1
Codec ID/Info                            : Advanced Video Coding
Duration                                 : 2h 49mn
Bit rate                                 : 1 300 Kbps
Width                                    : 712 pixels
Height                                   : 400 pixels
Display aspect ratio                     : 16:9
Frame rate mode                          : Constant
Frame rate                               : 29.970 fps
Color space                              : YUV
Chroma subsampling                       : 4:2:0
Bit depth                                : 8 bits
Scan type                                : Progressive
Bits/(Pixel*Frame)                       : 0.152
Stream size                              : 1.54 GiB (89%)
Writing library                          : x264 core 155 r2901 7d0ff22
Encoding settings                        : cabac=1 / ref=1 / deblock=1:0:0 / analyse=0x3:0x113 / me=hex / subme=2 / psy=1 / psy_rd=1.00:0.00 / mixed_ref=0 / me_range=16 / chroma_me=1 / trellis=0 / 8x8dct=1 / cqm=0 / deadzone=21,11 / fast_pskip=1 / chroma_qp_offset=0 / threads=12 / lookahead_threads=3 / sliced_threads=0 / nr=0 / decimate=1 / interlaced=0 / bluray_compat=0 / constrained_intra=0 / bframes=3 / b_pyramid=2 / b_adapt=1 / b_bias=0 / direct=1 / weightb=1 / open_gop=0 / weightp=1 / keyint=300 / keyint_min=30 / scenecut=40 / intra_refresh=0 / rc_lookahead=10 / rc=abr / mbtree=1 / bitrate=1300 / ratetol=1.0 / qcomp=0.60 / qpmin=0 / qpmax=69 / qpstep=4 / vbv_maxrate=17500 / vbv_bufsize=17500 / nal_hrd=none / filler=0 / ip_ratio=1.40 / aq=1:1.00
Encoded date                             : UTC 2018-11-04 05:28:46
Tagged date                              : UTC 2018-11-04 05:28:46
Color range                              : Limited
Color primaries                          : BT.601 NTSC
Transfer characteristics                 : BT.709
Matrix coefficients                      : BT.601

Audio
ID                                       : 2
Format                                   : AAC
Format/Info                              : Advanced Audio Codec
Format profile                           : LC
Codec ID                                 : 40
Duration                                 : 2h 49mn
Bit rate mode                            : Variable
Bit rate                                 : 160 Kbps
Channel(s)                               : 2 channels
Channel positions                        : Front: L R
Sampling rate                            : 48.0 KHz
Compression mode                         : Lossy
Stream size                              : 195 MiB (11%)
Title                                    : Stereo / Stereo
Encoded date                             : UTC 2018-11-04 05:28:46
Tagged date                              : UTC 2018-11-04 05:28:46




Category MMA
Rating N/A
Size 1.74 GB
Show/Hide Files
1 file