Torrent’s details
Name Formula1 2018 Brazilian Grand Prix Pre-Qualifying 720p HDTV DD2.0 50fps x264-wAm
Description SKYSPORTS F1
FULL BROADCAST
DOLBY DIGITAL
ADVERTS REMOVED


General
Unique ID                   : 311506264293003982128248814106778472210 (0xEA59EC9A1D785DC62C209A38B8630F12)
Complete name               : F:500GBDownloadsFormula1 2018 Brazilian Grand Prix Pre-Qualifying  720p HDTV DD2.0 50fps x264-wAm.mkv
Format                      : Matroska
Format version              : Version 4 / Version 2
File size                   : 1.22 GiB
Duration                    : 41 min 23 s
Overall bit rate            : 4 210 kb/s
Writing application         : Lavf57.71.100
Writing library             : Lavf57.71.100
ErrorDetectionType          : Per level 1

Video
ID                          : 1
Format                      : AVC
Format/Info                 : Advanced Video Codec
Format profile              : High@L4.1
Format settings             : CABAC / 9 Ref Frames
Format settings, CABAC      : Yes
Format settings, ReFrames   : 9 frames
Codec ID                    : V_MPEG4/ISO/AVC
Duration                    : 41 min 19 s
Bit rate                    : 3 934 kb/s
Width                       : 1 280 pixels
Height                      : 720 pixels
Display aspect ratio        : 16:9
Frame rate mode             : Constant
Frame rate                  : 50.000 FPS
Color space                 : YUV
Chroma subsampling          : 4:2:0
Bit depth                   : 8 bits
Scan type                   : Progressive
Bits/(Pixel*Frame)          : 0.085
Stream size                 : 1.14 GiB (93%)
Default                     : Yes
Forced                      : No

Audio
ID                          : 2
Format                      : AC-3
Format/Info                 : Audio Coding 3
Codec ID                    : A_AC3
Duration                    : 41 min 19 s
Bit rate mode               : Constant
Bit rate                    : 192 kb/s
Channel(s)                  : 2 channels
Channel positions           : Front: L R
Sampling rate               : 48.0 kHz
Frame rate                  : 31.250 FPS (1536 SPF)
Bit depth                   : 16 bits
Compression mode            : Lossy
Delay relative to video     : 16 ms
Stream size                 : 56.8 MiB (5%)
Service kind                : Complete Main
Default                     : Yes
Forced                      : No

Category Formula1
Rating
Size 1.22 GB
Show/Hide Files
1 file