Torrent’s details
Name NBA.2008.12.25.Celtics@Lakers.720p.HDTV.60fps.x264
Image
Description Information

Event: First meeting on Christmas day after the 2008 Finals

HDTV rip, Seeding on a 10GB seedbox

Language: English
Ripper: Credit goes to original ripper
Video: MPEG4 Video (H264) 1280x720 59.94fps [V: h264 high L4.1, yuv420p, 1280x720
Audio: AAC 48000Hz stereo [A: English [eng] (aac he-aac, 48000 Hz, stereo)



Format: Matroska
Format version                 : Version 4
File size                      : 3.36 GiB
Duration                       : 1 h 44 min
Overall bit rate               : 4 593 kb/s
Encoded date                   : UTC 2022-05-01 01:07:50
Writing application            : mkvmerge v66.0.0 ('Josie'wink.gif 64-bit
Writing library                : libebml v1.4.2 + libmatroska v1.6.4

Video
ID                             : 1
Format                         : AVC
Format/Info                    : Advanced Video Codec
Format profile                 : High@L4.1
Format settings                : CABAC / 4 Ref Frames
Format settings, CABAC         : Yes
Format settings, Reference fra : 4 frames
Codec ID                       : V_MPEG4/ISO/AVC
Duration                       : 1 h 44 min
Bit rate                       : 4 500 kb/s
Width                          : 1 280 pixels
Height                         : 720 pixels
Display aspect ratio           : 16:9
Frame rate mode                : Constant
Frame rate                     : 59.940 (59940/1000) FPS
Original frame rate            : 59.940 (60000/1001) FPS
Color space                    : YUV
Chroma subsampling             : 4:2:0
Bit depth                      : 8 bits
Scan type                      : Progressive
Bits/(Pixel*Frame)             : 0.081
Stream size                    : 3.29 GiB (98%)
Writing library                : x264 core 59 r851M e11ef38
Default                        : Yes
Forced                         : No

Audio
ID                             : 2
Format                         : AAC LC SBR
Format/Info                    : Advanced Audio Codec Low Complexity with Spectral Band Replication
Commercial name                : HE-AAC
Format settings                : Explicit
Codec ID                       : A_AAC-2
Duration                       : 1 h 44 min
Bit rate                       : 89.3 kb/s
Channel(s)                     : 2 channels
Channel layout                 : L R
Sampling rate                  : 48.0 kHz
Frame rate                     : 23.438 FPS (2048 SPF)
Compression mode               : Lossy
Delay relative to video        : -33 ms
Stream size                    : 66.8 MiB (2%)
Language                       : English
Default                        : Yes
Forced                         : No
Category NBA/WNBA
Rating N/A
Size 3.36 GB
Show/Hide Files
1 file