Torrent’s details
Name Cricket 2018 - Under 19 World Cup Final Highlights 720p50 x264
Description


Cricket 2018 - Under 19 World Cup Final Highlights 720p50 x264

General
Complete name                            : /sdc/0017/downloads/Cricket 2018 - Under 19 World Cup Final Highlights 720p50 x264.mp4
Format                                   : MPEG-4
Format profile                           : Base Media
Codec ID                                 : isom
File size                                : 7.32 GiB
Duration                                 : 3h 44mn
Overall bit rate mode                    : Variable
Overall bit rate                         : 4 677 Kbps
Encoded date                             : UTC 2018-02-04 19:46:15
Tagged date                              : UTC 2018-02-04 19:46:15

Video
ID                                       : 1
Format                                   : AVC
Format/Info                              : Advanced Video Codec
Format profile                           : High@L4.1
Format settings, CABAC                   : Yes
Format settings, ReFrames                : 8 frames
Codec ID                                 : avc1
Codec ID/Info                            : Advanced Video Coding
Duration                                 : 3h 44mn
Bit rate                                 : 4 498 Kbps
Maximum bit rate                         : 42.0 Mbps
Width                                    : 1 280 pixels
Height                                   : 720 pixels
Display aspect ratio                     : 16:9
Frame rate mode                          : Constant
Frame rate                               : 50.000 fps
Color space                              : YUV
Chroma subsampling                       : 4:2:0
Bit depth                                : 8 bits
Scan type                                : Progressive
Bits/(Pixel*Frame)                       : 0.098
Stream size                              : 7.04 GiB (96%)
Title                                    : Video
Tagged date                              : UTC 2018-02-04 19:47:54

Audio
ID                                       : 2
Format                                   : AAC
Format/Info                              : Advanced Audio Codec
Format profile                           : LC
Codec ID                                 : 40
Duration                                 : 3h 44mn
Bit rate mode                            : Variable
Bit rate                                 : 173 Kbps
Maximum bit rate                         : 202 Kbps
Channel(s)                               : 2 channels
Channel positions                        : Front: L R
Sampling rate                            : 48.0 KHz
Compression mode                         : Lossy
Stream size                              : 277 MiB (4%)
Title                                    :  
Encoded date                             : UTC 2018-02-04 11:52:03
Tagged date                              : UTC 2018-02-04 19:47:54
Category Cricket
Rating N/A
Size 7.32 GB
Show/Hide Files
1 file