Torrent’s details
Name Bulgarian SuperCup Ludogorets vs CSKA-Sofia 07/17 1080p BGAudio
Description Format                      : Matroska
Format version              : Version 4 / Version 2
File size                   : 5.05 GiB
Duration                    : 1h 55mn
Overall bit rate            : 6 248 Kbps
Writing application         : VideoReDo (Lavf58.29.100)
Writing library             : VideoReDo (Lavf58.29.100)

Video
ID                          : 1
Format                      : AVC
Format/Info                 : Advanced Video Codec
Format profile              : Main@L4
Format settings, CABAC      : Yes
Format settings, ReFrames   : 3 frames
Codec ID                    : V_MPEG4/ISO/AVC
Duration                    : 1h 55mn
Bit rate                    : 5 995 Kbps
Width                       : 1 920 pixels
Height                      : 1 080 pixels
Display aspect ratio        : 16:9
Frame rate mode             : Constant
Frame rate                  : 25.000 fps
Color space                 : YUV
Chroma subsampling          : 4:2:0
Bit depth                   : 8 bits
Scan type                   : MBAFF
Scan order                  : Top Field First
Bits/(Pixel*Frame)          : 0.116
Stream size                 : 4.84 GiB (96%)
Default                     : No
Forced                      : No
Color range                 : Limited
Color primaries             : BT.709
Transfer characteristics    : BT.709
Matrix coefficients         : BT.709
DURATION                    : 01:55:39.080000000

Audio
ID                          : 2
Format                      : MPEG Audio
Format version              : Version 1
Format profile              : Layer 2
Codec ID                    : A_MPEG/L2
Codec ID/Hint               : MP2
Duration                    : 1h 55mn
Bit rate mode               : Constant
Bit rate                    : 128 Kbps
Channel(s)                  : 2 channels
Sampling rate               : 48.0 KHz
Compression mode            : Lossy
Stream size                 : 106 MiB (2%)
Language                    : Bulgarian
Default                     : Yes
Forced                      : No
DURATION                    : 01:55:39.128000000
Category European Soccer
Rating N/A
Size 5.05 GB
Show/Hide Files
1 file