Torrent’s details
Name Cycling 2019 05 14 Tour of California Stage 3 - 720p60fpsHEVC-NBCSN
Image
Description



Format                         : Matroska
Format version                 : Version 4 / Version 2
File size                      : 4.24 GiB
Duration                       : 2 h 26 min
Overall bit rate               : 4 157 kb/s
Encoded date                   : UTC 2019-05-14 23:57:50
Writing application            : mkvmerge v25.0.0 ('Prog Noir'wink.gif 64-bit
Writing library                : libebml v1.3.6 + libmatroska v1.4.9 / Lavf58.20.100

Video
ID                             : 1
Format                         : HEVC
Format/Info                    : High Efficiency Video Coding
Format profile                 : Main@L3.1@Main
Codec ID                       : V_MPEGH/ISO/HEVC
Duration                       : 2 h 26 min
Bit rate                       : 3 992 kb/s
Width                          : 1 280 pixels
Height                         : 720 pixels
Display aspect ratio           : 16:9
Frame rate mode                : Constant
Frame rate                     : 59.940 (59940/1000) FPS
Original frame rate            : 59.940 (60000/1001) FPS
Color space                    : YUV
Chroma subsampling             : 4:2:0
Bit depth                      : 8 bits
Bits/(Pixel*Frame)             : 0.072
Stream size                    : 4.07 GiB (96%)
Default                        : Yes
Forced                         : No
Color range                    : Limited
Color primaries                : BT.709
Transfer characteristics       : BT.709
Matrix coefficients            : BT.709

Audio
ID                             : 2
Format                         : AAC
Format/Info                    : Advanced Audio Codec
Format profile                 : LC
Codec ID                       : A_AAC
Duration                       : 2 h 26 min
Bit rate                       : 161 kb/s
Channel(s)                     : 2 channels
Channel positions              : Front: L R
Sampling rate                  : 48.0 kHz
Frame rate                     : 46.875 FPS (1024 SPF)
Compression mode               : Lossy
Delay relative to video        : 22 ms
Stream size                    : 168 MiB (4%)
Title                          : Stereo
Default                        : Yes
Forced                         : No
Category Cycling
Rating N/A
Size 4.24 GB
Show/Hide Files
1 file