Torrent’s details
Name UEFA Nations League.14.06.2022.Group A3.Round 4. Germany vs. Italy Ger ZDF HD.4.2.0-8b.720p DD2.0 DD5.1 - SiDD
Description Sadly, I did not manage to record the build up to the match due to a technicality.



General
ID                                       : 1 (0x1)
Complete name                            :UEFA Nations League.14.06.2022.Group A3.Round 4. Germany vs. Italy .Ger.ZDF HD.4.2.0-8b.720p.ts
Format                                   : MPEG-TS
File size                                : 17.1 GiB
Duration                                 : 2 h 36 min
Overall bit rate mode                    : Variable
Overall bit rate                         : 15.6 Mb/s

Video
ID                                       : 6110 (0x17DE)
Menu ID                                  : 11110 (0x2B66)
Format                                   : AVC
Format/Info                              : Advanced Video Codec
Format profile                           : High@L4
Format settings                          : CABAC / 6 Ref Frames
Format settings, CABAC                   : Yes
Format settings, Reference frames        : 6 frames
Format settings, GOP                     : M=4, N=33
Codec ID                                 : 27
Duration                                 : 2 h 36 min
Bit rate                                 : 13.8 Mb/s
Width                                    : 1 280 pixels
Height                                   : 720 pixels
Display aspect ratio                     : 16:9
Frame rate                               : 50.000 FPS
Color space                              : YUV
Chroma subsampling                       : 4:2:0
Bit depth                                : 8 bits
Scan type                                : Progressive
Bits/(Pixel*Frame)                       : 0.298
Stream size                              : 15.1 GiB (88%)
Color range                              : Limited
Color primaries                          : BT.709
Transfer characteristics                 : BT.709
Matrix coefficients                      : BT.709

Audio #1
ID                                       : 6120 [0x17E8]
Menu ID                                  : 11110 (0x2B66)
Format                                   : MPEG Audio
Format version                           : Version 1
Format profile                           : Layer 2
Codec ID                                 : 3
Duration                                 : 2 h 36 min
Bit rate mode                            : Constant
Bit rate                                 : 256 kb/s
Channel(s)                               : 2 channels
Sampling rate                            : 48.0 kHz
Frame rate                               : 41.667 FPS (1152 SPF)
Compression mode                         : Lossy
Stream size                              : 287 MiB (2%)
Language                                 : German

Audio #2
ID                                       : 6121 (0x17E9)
Menu ID                                  : 11110 (0x2B66)
Format                                   : MPEG Audio
Format version                           : Version 1
Format profile                           : Layer 2
Codec ID                                 : 3
Duration                                 : 2 h 36 min
Bit rate mode                            : Constant
Bit rate                                 : 192 kb/s
Channel(s)                               : 2 channels
Sampling rate                            : 48.0 kHz
Frame rate                               : 41.667 FPS (1152 SPF)
Compression mode                         : Lossy
Stream size                              : 216 MiB (1%)

Audio #3
ID                                       : 6122 (0x17EA)
Menu ID                                  : 11110 (0x2B66)
Format                                   : AC-3
Format/Info                              : Audio Coding 3
Commercial name                          : Dolby Digital
Codec ID                                 : 6
Duration                                 : 2 h 36 min
Bit rate mode                            : Constant
Bit rate                                 : 448 kb/s
Channel(s)                               : 6 channels
Channel layout                           : L R C LFE Ls Rs
Sampling rate                            : 48.0 kHz
Frame rate                               : 31.250 FPS (1536 SPF)
Compression mode                         : Lossy
Stream size                              : 503 MiB (3%)
Language                                 : German
Service kind                             : Complete Main

Audio #4
ID                                       : 6123 (0x17EB)
Menu ID                                  : 11110 (0x2B66)
Format                                   : MPEG Audio
Format version                           : Version 1
Format profile                           : Layer 2
Codec ID                                 : 3
Duration                                 : 2 h 36 min
Bit rate mode                            : Constant
Bit rate                                 : 192 kb/s
Channel(s)                               : 2 channels
Sampling rate                            : 48.0 kHz
Frame rate                               : 41.667 FPS (1152 SPF)
Compression mode                         : Lossy
Stream size                              : 216 MiB (1%)
Language                                 : Multiple languages

Text
ID                                       : 6131 (0x17F3)
Menu ID                                  : 11110 (0x2B66)
Format                                   : DVB Subtitle
Codec ID                                 : 6
Duration                                 : 2 h 36 min
Delay relative to video                  : 25 s 540 ms
Language                                 : German

Other
ID                                       : 6130 (0x17F2)-100
Menu ID                                  : 11110 (0x2B66)
Format                                   : Teletext
Language                                 : German

Category European Soccer
Rating
Size 17.13 GB
Show/Hide Files
1 file