Torrent’s details
Name NFL.2019.Week02.Atlanta.v.Minnesota.FOX.480p.H264.English-IMD
Description ad breaks, halftime & updates from other games removed.  It's possible that I missed an update or two, but I did my best.

General
Format : Matroska
Format version : Version 2
File size : 2.17 GiB
Duration : 2 h 13 min
Overall bit rate mode : Variable
Overall bit rate : 2 315 kb/s
Writing application : Lavf54.63.104
Writing library : Lavf54.63.104

Video
ID : 1
Format : AVC
Format/Info : Advanced Video Codec
Format profile : Main@L3
Format settings : CABAC / 3 Ref Frames
Format settings, CABAC : Yes
Format settings, Reference frames : 3 frames
Codec ID : V_MPEG4/ISO/AVC
Duration : 2 h 13 min
Bit rate mode : Variable
Bit rate : 1 821 kb/s
Maximum bit rate : 9 800 kb/s
Width : 720 pixels
Height : 480 pixels
Display aspect ratio : 16:9
Original display aspect ratio : 16:9
Frame rate mode : Constant
Frame rate : 29.970 (30000/1001) FPS
Standard : NTSC
Color space : YUV
Chroma subsampling : 4:2:0
Bit depth : 8 bits
Scan type : Progressive
Bits/(Pixel*Frame) : 0.176
Stream size : 1.70 GiB (79%)
Default : No
Forced : No
Color range : Limited

Audio
ID : 2
Format : AC-3
Format/Info : Audio Coding 3
Commercial name : Dolby Digital
Codec ID : A_AC3
Duration : 2 h 13 min
Bit rate mode : Constant
Bit rate : 448 kb/s
Channel(s) : 6 channels
ChannelLayout_Original : L R C LFE Ls Rs
Sampling rate : 48.0 kHz
Frame rate : 31.250 FPS (1536 SPF)
Bit depth : 16 bits
Compression mode : Lossy
Delay relative to video : 21 ms
Stream size : 429 MiB (19%)
Language : English
Service kind : Complete Main
Default : Yes
Forced : No
Category NFL
Rating N/A
Size 2.17 GB
Show/Hide Files
1 file