Torrent’s details
Name Formula 1 2018/04/15 Chinese Grand Prix Race 1080p HDTV 50fps ENG | SKY Sports F1 HD
Description COMPLETE SKY Sports F1 Race Day Coverage (approx. 4 hrs 59 min)

Formula.1.2018x03.China.Race.SkyF1HD.1080p50 (smcgill1969)

01.Pre-Race.Buildup.1080p50.mp4 -- 4.16 GB -- 1 h 35 min
02.Race.Session.1080p50.mp4 -- 5.39 GB -- 2 h 3 min
03.Post-Race.Analysis.1080p50.mp4 -- 3.56 GB -- 1 h 21 min


___________________________


General
Complete name : 02.Race.Session.mp4
Format : MPEG-4
Format profile : QuickTime
Codec ID : qt 2005.03 (qt )
File size : 5.39 GiB
Duration : 2 h 3 min
Overall bit rate mode : Variable
Overall bit rate : 6 264 kb/s
Encoded date : UTC 2018-04-15 06:07:25
Tagged date : UTC 2018-04-15 08:10:52
Writing library : Apple QuickTime

Video
ID : 1
Format : AVC
Format/Info : Advanced Video Codec
Format profile : High@L4.2
Format settings : CABAC / 2 Ref Frames
Format settings, CABAC : Yes
Format settings, RefFrames : 2 frames
Format settings, GOP : M=3, N=24
Codec ID : avc1
Codec ID/Info : Advanced Video Coding
Duration : 2 h 3 min
Duration_FirstFrame : 11 ms
Bit rate mode : Variable
Bit rate : 5 998 kb/s
Maximum bit rate : 12.4 Mb/s
Width : 1 920 pixels
Height : 1 080 pixels
Original height : 1 088 pixels
Display aspect ratio : 16:9
Original display aspect ratio : 16:9
Frame rate mode : Constant
Frame rate : 50.000 FPS
Color space : YUV
Chroma subsampling : 4:2:0
Bit depth : 8 bits
Scan type : Progressive
Bits/(Pixel*Frame) : 0.058
Stream size : 5.16 GiB (96%)
Language : English
Encoded date : UTC 2018-04-15 06:07:25
Tagged date : UTC 2018-04-15 08:10:52

Audio
ID : 2
Format : AAC
Format/Info : Advanced Audio Codec
Format profile : LC
Codec ID : mp4a-40-2
Duration : 2 h 3 min
Source duration : 2 h 3 min
Bit rate mode : Constant
Bit rate : 256 kb/s
Channel(s) : 2 channels
Channel positions : Front: L R
Sampling rate : 48.0 kHz
Frame rate : 46.875 FPS (1024 SPF)
Compression mode : Lossy
Stream size : 223 MiB (4%)
Source stream size : 223 MiB (4%)
Language : English
Encoded date : UTC 2018-04-15 06:07:25
Tagged date : UTC 2018-04-15 08:10:52


Respect to Mr. McGill! cool2.gif
Category Formula1
Rating
Size 13.11 GB
Show/Hide Files
3 files