Torrent’s details
Name NBA 2010 Playoffs R2G2 Jazz vs Lakers 1080i HDTV DD5.1 MPEG2
Description




General
ID                             : 1 (0x1)
Complete name                  : NBA.2010.Playoffs.R2.G2.Jazz.vs.Lakers.TNT.1080i.HDTV.30fps.DD5.1.MPEG2.ts
Format                         : MPEG-TS
File size                      : 10.9 GiB
Duration                       : 1 h 55 min
Overall bit rate mode          : Variable
Overall bit rate               : 13.6 Mb/s
Frame rate                     : 29.970 FPS
Movie name                     : NBA Playoffs
Law rating                     : None

Video
ID                             : 2112 (0x840)
Menu ID                        : 1 (0x1)
Format                         : MPEG Video
Format version                 : Version 2
Format profile                 : Main@High
Format settings                : CustomMatrix / BVOP
Format settings, BVOP          : Yes
Format settings, Matrix        : Custom
Format settings, GOP           : Variable
Codec ID                       : 2
Duration                       : 1 h 55 min
Bit rate mode                  : Variable
Bit rate                       : 12.4 Mb/s
Maximum bit rate               : 38.8 Mb/s
Width                          : 1 920 pixels
Height                         : 1 080 pixels
Display aspect ratio           : 16:9
Frame rate                     : 29.970 (30000/1001) FPS
Color space                    : YUV
Chroma subsampling             : 4:2:0
Bit depth                      : 8 bits
Compression mode               : Lossy
Bits/(Pixel*Frame)             : 0.200
Time code of first frame       : 00:00:00;00
Time code source               : Group of pictures header
Stream size                    : 10.0 GiB (92%)

Audio
ID                             : 2113 (0x841)
Menu ID                        : 1 (0x1)
Format                         : AC-3
Format/Info                    : Audio Coding 3
Commercial name                : Dolby Digital
Codec ID                       : 129
Duration                       : 1 h 55 min
Bit rate mode                  : Constant
Bit rate                       : 448 kb/s
Channel(s)                     : 6 channels
Channel layout                 : L R C LFE Ls Rs
Sampling rate                  : 48.0 kHz
Frame rate                     : 31.250 FPS (1536 SPF)
Compression mode               : Lossy
Stream size                    : 370 MiB (3%)
Language                       : English
Service kind                   : Complete Main
Category NBA/WNBA
Rating N/A
Size 10.94 GB
Show/Hide Files
1 file