Torrent’s details
Name UNL.2022.06.09.Sweden.vs.Serbia.SERBIAN.1080p.50fps.HDTV.x264
Image
Description UNL.2022.06.09.Sweden.vs.Serbia.SERBIAN.1080p.50fps.HDTV.x264

Release Details
Network: Arena Sport RS
Language: Serbian
Notes: Full Match

Do not re-upload elsewhere without permission!
This includes other torrent sites, Usenet, direct download links, etc.

Media Info:
General
Complete name                            : UNL.2022.06.09.Sweden.vs.Serbia.ARENA.1080p50-SRB.mp4
Format                                   : MPEG-4
Format profile                           : Base Media
Codec ID                                 : isom (isom/iso2/avc1/mp41)
File size                                : 4.18 GiB
Duration                                 : 1h 45mn
Overall bit rate                         : 5 696 Kbps
Encoded date                             : UTC 1904-01-01 00:00:00
Tagged date                              : UTC 1904-01-01 00:00:00
Writing application                      : Lavf57.83.100

Video
ID                                       : 1
Format                                   : AVC
Format/Info                              : Advanced Video Codec
Format profile                           : High@L4.2
Format settings, CABAC                   : Yes
Format settings, ReFrames                : 4 frames
Codec ID                                 : avc1
Codec ID/Info                            : Advanced Video Coding
Duration                                 : 1h 45mn
Bit rate                                 : 5 551 Kbps
Width                                    : 1 920 pixels
Height                                   : 1 080 pixels
Display aspect ratio                     : 16:9
Frame rate mode                          : Constant
Frame rate                               : 50.000 fps
Color space                              : YUV
Chroma subsampling                       : 4:2:0
Bit depth                                : 8 bits
Scan type                                : Progressive
Bits/(Pixel*Frame)                       : 0.054
Stream size                              : 4.08 GiB (97%)
Encoded date                             : UTC 1904-01-01 00:00:00
Tagged date                              : UTC 1904-01-01 00:00:00

Audio
ID                                       : 2
Format                                   : AAC
Format/Info                              : Advanced Audio Codec
Format profile                           : LC
Codec ID                                 : 40
Duration                                 : 1h 45mn
Duration_LastFrame                       : -13ms
Bit rate mode                            : Constant
Bit rate                                 : 132 Kbps
Channel(s)                               : 2 channels
Channel positions                        : Front: L R
Sampling rate                            : 48.0 KHz
Frame rate                               : 46.875 fps (1024 spf)
Compression mode                         : Lossy
Stream size                              : 99.0 MiB (2%)
Default                                  : Yes
Alternate group                          : 1
Encoded date                             : UTC 1904-01-01 00:00:00
Tagged date                              : UTC 1904-01-01 00:00:00


Category European Soccer
Rating N/A
Size 4.18 GB
Show/Hide Files
1 file