Torrent’s details
Name NBA | Legacy the True Story of the LA Lakers 2022 | EP6 | HD WEB DL 2160p H265 DDP5 1 | EN
Image
Description Legacy: The True Story of the LA Lakers captures the remarkable rise and unprecedented
success of one of the most dominant and iconic franchises in professional sports.

EP1: https://sportscult.org/index.php?page=torrent-details&id=839619188dfb859de3a42e09f3535faf1bf6925f

EP2: https://sportscult.org/index.php?page=torrent-details&id=bc231f53e03dc6705fc6a0c046e4cf4e59a22e33

EP3: https://sportscult.org/index.php?page=torrent-details&id=2481d048b6f537c942c5a5ad472c9b11bd3d3437

EP4: https://sportscult.org/index.php?page=torrent-details&id=b56aebe2cec2e3acb7445b656d294f334f858243

EP5: https://sportscult.org/index.php?page=torrent-details&id=7b1b7d4bdb0cd813761e394a949b8fc3ffcbeb35


Quote:
Legacy.The.True.Story.of.the.LA.Lakers.S01E06.Episode.6.2160p.HULU.WEB-DL.DDP5.1.H.265-codehound.mkv
Format                      : Matroska
Format version              : Version 4
File size                   : 6.18 GiB
Duration                    : 58 min 27 s
Overall bit rate            : 15.1 Mb/s
Encoded date                : UTC 2022-09-12 18:56:51
Writing application         : mkvmerge v70.0.0 ('Caught A Lite Sneeze'wink.gif 64-bit
Writing library             : libebml v1.4.2 + libmatroska v1.6.4

Video
ID                          : 1
Format                      : HEVC
Format/Info                 : High Efficiency Video Coding
Format profile              : Main 10@L5.1@Main
Codec ID                    : V_MPEGH/ISO/HEVC
Duration                    : 58 min 27 s
Bit rate                    : 14.9 Mb/s
Width                       : 3 840 pixels
Height                      : 2 160 pixels
Display aspect ratio        : 16:9
Frame rate mode             : Constant
Frame rate                  : 23.976 (24000/1001) FPS
Color space                 : YUV
Chroma subsampling          : 4:2:0
Bit depth                   : 10 bits
Bits/(Pixel*Frame)          : 0.075
Stream size                 : 6.08 GiB (98%)
Language                    : English
Default                     : Yes
Forced                      : No

Audio
ID                          : 2
Format                      : E-AC-3
Format/Info                 : Enhanced AC-3
Commercial name             : Dolby Digital Plus
Codec ID                    : A_EAC3
Duration                    : 58 min 27 s
Bit rate mode               : Constant
Bit rate                    : 256 kb/s
Channel(s)                  : 6 channels
Channel layout              : L R C LFE Ls Rs
Sampling rate               : 48.0 kHz
Frame rate                  : 31.250 FPS (1536 SPF)
Compression mode            : Lossy
Stream size                 : 107 MiB (2%)
Language                    : English
Service kind                : Complete Main
Default                     : Yes
Forced                      : No

Text #1
ID                          : 3
Format                      : UTF-8
Codec ID                    : S_TEXT/UTF8
Codec ID/Info               : UTF-8 Plain Text
Duration                    : 58 min 12 s
Bit rate                    : 119 b/s
Frame rate                  : 0.413 FPS
Count of elements           : 1443
Stream size                 : 50.8 KiB (0%)
Language                    : English
Default                     : No
Forced                      : No

Text #2
ID                          : 4
Format                      : UTF-8
Codec ID                    : S_TEXT/UTF8
Codec ID/Info               : UTF-8 Plain Text
Duration                    : 58 min 12 s
Bit rate                    : 111 b/s
Frame rate                  : 0.406 FPS
Count of elements           : 1417
Stream size                 : 47.6 KiB (0%)
Language                    : Spanish
Default                     : No
Forced                      : N

Category NBA/WNBA
Rating
Size 6.18 GB
Show/Hide Files
1 file