Torrent’s details
Name Match of the Day 2 2019-10-06 720o HDTV DD5.1 50fps x264-wAm
Description General
Unique ID                   : 120885000515248652870593601656013169325 (0x5AF19AAEF214725FE03B29DA3217A2AD)
Complete name               : F:500GBDownloadsMatch of the Day 2 2019-10-06 720o HDTV DD5.1 50fps x264-wAm.mkv
Format                      : Matroska
Format version              : Version 4
File size                   : 2.62 GiB
Duration                    : 1 h 15 min
Overall bit rate            : 4 961 kb/s
Writing application         : Lavf58.20.100
Writing library             : Lavf58.20.100
ErrorDetectionType          : Per level 1

Video
ID                          : 1
Format                      : AVC
Format/Info                 : Advanced Video Codec
Format profile              : High@L4.1
Format settings             : CABAC / 9 Ref Frames
Format settings, CABAC      : Yes
Format settings, Reference  : 9 frames
Codec ID                    : V_MPEG4/ISO/AVC
Duration                    : 1 h 15 min
Bit rate                    : 4 478 kb/s
Width                       : 1 280 pixels
Height                      : 720 pixels
Display aspect ratio        : 16:9
Frame rate mode             : Constant
Frame rate                  : 50.000 FPS
Color space                 : YUV
Chroma subsampling          : 4:2:0
Bit depth                   : 8 bits
Scan type                   : Progressive
Bits/(Pixel*Frame)          : 0.097
Stream size                 : 2.37 GiB (90%)
Default                     : Yes
Forced                      : No

Audio
ID                          : 2
Format                      : AC-3
Format/Info                 : Audio Coding 3
Commercial name             : Dolby Digital
Codec ID                    : A_AC3
Duration                    : 1 h 15 min
Bit rate mode               : Constant
Bit rate                    : 384 kb/s
Channel(s)                  : 6 channels
Channel layout              : L R C LFE Ls Rs
Sampling rate               : 48.0 kHz
Frame rate                  : 31.250 FPS (1536 SPF)
Bit depth                   : 16 bits
Compression mode            : Lossy
Delay relative to video     : 270 ms
Stream size                 : 208 MiB (8%)
Service kind                : Complete Main
Default                     : Yes
Forced                      : No

Category EPL
Rating N/A
Size 2.62 GB
Show/Hide Files
1 file