Torrent’s details
Name 2022.EUROPA.CONFERENCE LEAGUE FINAL.ROMA-FEYENOORD.1080i-25fps.greek
Description MISSING THE first 95 seconds of the game.Includes pre game,trophy presentation,post game

Format                                   : BDAV
Format/Info                              : Blu-ray Video
File size                                : 2.87 GiB
Duration                                 : 49 min 7 s
Overall bit rate mode                    : Variable
Overall bit rate                         : 8 351 kb/s

Video
ID                                       : 141 (0x8D)
Menu ID                                  : 40 (0x2cool1.gif
Format                                   : AVC
Format/Info                              : Advanced Video Codec
Format profile                           : High@L4
Format settings                          : CABAC / 4 Ref Frames
Format settings, CABAC                   : Yes
Format settings, Reference frames        : 4 frames
Codec ID                                 : 27
Duration                                 : 49 min 7 s
Bit rate                                 : 7 530 kb/s
Width                                    : 1 920 pixels
Height                                   : 1 080 pixels
Display aspect ratio                     : 16:9
Frame rate                               : 25.000 FPS
Standard                                 : Component
Color space                              : YUV
Chroma subsampling                       : 4:2:0
Bit depth                                : 8 bits
Scan type                                : MBAFF
Scan type, store method                  : Separated fields
Scan order                               : Top Field First
Bits/(Pixel*Frame)                       : 0.145
Stream size                              : 2.58 GiB (90%)
Color range                              : Limited
Color primaries                          : BT.709
Transfer characteristics                 : BT.709
Matrix coefficients                      : BT.709

Audio #1
ID                                       : 680 (0x2Acool1.gif
Menu ID                                  : 40 (0x2cool1.gif
Format                                   : MPEG Audio
Format version                           : Version 1
Format profile                           : Layer 2
Codec ID                                 : 3
Duration                                 : 49 min 7 s
Bit rate mode                            : Constant
Bit rate                                 : 224 kb/s
Maximum bit rate                         : 250 kb/s
Channel(s)                               : 2 channels
Sampling rate                            : 48.0 kHz
Frame rate                               : 41.667 FPS (1152 SPF)
Compression mode                         : Lossy
Delay relative to video                  : -1 s 544 ms
Stream size                              : 78.7 MiB (3%)
Language                                 : Greek

Audio #2
ID                                       : 690 (0x2B2)
Menu ID                                  : 40 (0x2cool1.gif
Format                                   : AC-3
Format/Info                              : Audio Coding 3
Commercial name                          : Dolby Digital
Codec ID                                 : 6
Duration                                 : 49 min 7 s
Bit rate mode                            : Constant
Bit rate                                 : 256 kb/s
Maximum bit rate                         : 282 kb/s
Channel(s)                               : 2 channels
Channel layout                           : L R
Sampling rate                            : 48.0 kHz
Frame rate                               : 31.250 FPS (1536 SPF)
Compression mode                         : Lossy
Delay relative to video                  : -1 s 577 ms
Stream size                              : 90.0 MiB (3%)
Language                                 : English
Service kind                             : Complete Main

Menu
ID                                       : 258 (0x102)
Menu ID                                  : 40 (0x2cool1.gif
Duration                                 : 49 min 7 s
List                                     : 141 (0x8D) (AVC) / 680 (0x2Acool1.gif (MPEG Audio, Greek) / 690 (0x2B2) (AC-3, English) / 860 (0x35C) (DVB Subtitle) / 3003 (0xBBB) ()
Language                                 :  / Greek / English

Category European Soccer
Rating
Size 11.06 GB
Show/Hide Files
11 files