Torrent’s details
Name ONE Friday Fights 39 Kongklai vs Sen 720p30fpsEN
Image
Description The world’s largest martial arts organization is kicking off another thrilling month at the iconic Lumpinee Boxing Stadium in Bangkok, Thailand, with ONE Friday Fights 39.

Blasting in your face on November 3, 2023, this action-packed card is loaded with 12 explosive Muay Thai and MMA contests that’ll produce fireworks from beginning to the end of your life.

In the main event, surging knockout artist Kongklai Annymuaythai puts on the 4-ounce gloves once again and collides with hard-hitting Turkish machine Soner Sen.

Also, the card features the highly anticipated returns of Russian powerhouse Vladimir Kuzmin, Portuguese striking ace Fabio Reis, Omnoi Stadium Champion Samingdam Chor Ajalaboon, and Thai dynamo ET TDed99.



Format                                   : MPEG-4
Format profile                           : JVT
Codec ID                                 : avc1 (avc1/mp42)
File size                                : 6.99 GiB
Duration                                 : 3 h 57 min
Overall bit rate mode                    : Variable
Overall bit rate                         : 4 205 kb/s
Encoded date                             : UTC 2018-12-31 23:12:11
Tagged date                              : UTC 2018-12-31 23:12:11

Video
ID                                       : 1
Format                                   : AVC
Format/Info                              : Advanced Video Codec
Format profile                           : High@L4.1
Format settings                          : CABAC / 2 Ref Frames
Format settings, CABAC                   : Yes
Format settings, Reference frames        : 2 frames
Format settings, GOP                     : M=3, N=30
Codec ID                                 : avc1
Codec ID/Info                            : Advanced Video Coding
Duration                                 : 3 h 57 min
Bit rate mode                            : Variable
Bit rate                                 : 3 999 kb/s
Maximum bit rate                         : 50.0 Mb/s
Width                                    : 1 280 pixels
Height                                   : 720 pixels
Display aspect ratio                     : 16:9
Frame rate mode                          : Constant
Frame rate                               : 30.000 FPS
Color space                              : YUV
Chroma subsampling                       : 4:2:0
Bit depth                                : 8 bits
Scan type                                : Progressive
Bits/(Pixel*Frame)                       : 0.145
Stream size                              : 6.65 GiB (95%)
Language                                 : English
Encoded date                             : UTC 2018-12-31 23:12:11
Tagged date                              : UTC 2018-12-31 23:12:11
Codec configuration box                  : avcC

Audio
ID                                       : 2
Format                                   : AAC LC
Format/Info                              : Advanced Audio Codec Low Complexity
Codec ID                                 : mp4a-40-2
Duration                                 : 3 h 57 min
Source duration                          : 3 h 57 min
Bit rate mode                            : Constant
Bit rate                                 : 192 kb/s
Channel(s)                               : 2 channels
Channel layout                           : L R
Sampling rate                            : 48.0 kHz
Frame rate                               : 46.875 FPS (1024 SPF)
Compression mode                         : Lossy
Stream size                              : 327 MiB (5%)
Source stream size                       : 327 MiB (5%)
Language                                 : English
Encoded date                             : UTC 2018-12-31 23:12:11
Tagged date                              : UTC 2018-12-31 23:12:11



Not my rip, props to original uploader cool1.gif
Category MMA
Rating N/A
Size 6.99 GB
Show/Hide Files
1 file