Torrent’s details
Name Cricket.2018.Australia.vs.India.1st.Test.Day.1.Highlights.1080p.WEBRip.x264-VLF | BT
Image
Description Cricket.2018.Australia.vs.India.1st.Test.Day.1.Highlights.1080p.WEBRip.x264-VLF | BT

Do not re-upload elsewhere without permission!
This includes other torrent sites, Usenet, or even direct download links.




Network: BT Spot
Language: English
Notes: Official Highlights, Adverts Removed


Coming Soon

General
Complete name                            : Cricket.2018.Aus.vs.India.1TD1.HL.BT.1080p-EN.mp4
Format                                   : MPEG-4
Format profile                           : Base Media
Codec ID                                 : isom (isom/iso2/avc1/mp41)
File size                                : 1.22 GiB
Duration                                 : 47mn 23s
Overall bit rate mode                    : Variable
Overall bit rate                         : 3 678 Kbps
Encoded date                             : UTC 1904-01-01 00:00:00
Tagged date                              : UTC 1904-01-01 00:00:00
Writing application                      : Lavf57.83.100

Video
ID                                       : 1
Format                                   : AVC
Format/Info                              : Advanced Video Codec
Format profile                           : High@L4.2
Format settings, CABAC                   : Yes
Format settings, ReFrames                : 1 frame
Format settings, GOP                     : M=1, N=60
Codec ID                                 : avc1
Codec ID/Info                            : Advanced Video Coding
Duration                                 : 47mn 23s
Bit rate                                 : 3 509 Kbps
Width                                    : 1 920 pixels
Height                                   : 1 080 pixels
Display aspect ratio                     : 16:9
Frame rate mode                          : Variable
Frame rate                               : 25.000 fps
Minimum frame rate                       : 23.968 fps
Maximum frame rate                       : 26.132 fps
Color space                              : YUV
Chroma subsampling                       : 4:2:0
Bit depth                                : 8 bits
Scan type                                : Progressive
Bits/(Pixel*Frame)                       : 0.068
Stream size                              : 1.16 GiB (95%)
Encoded date                             : UTC 1904-01-01 00:00:00
Tagged date                              : UTC 1904-01-01 00:00:00

Audio
ID                                       : 2
Format                                   : AAC
Format/Info                              : Advanced Audio Codec
Format profile                           : LC
Codec ID                                 : 40
Duration                                 : 47mn 23s
Bit rate mode                            : Variable
Bit rate                                 : 162 Kbps
Maximum bit rate                         : 178 Kbps
Channel(s)                               : 2 channels
Channel positions                        : Front: L R
Sampling rate                            : 44.1 KHz
Frame rate                               : 43.066 fps (1024 spf)
Compression mode                         : Lossy
Stream size                              : 55.0 MiB (4%)
Default                                  : Yes
Alternate group                          : 1
Encoded date                             : UTC 1904-01-01 00:00:00
Tagged date                              : UTC 1904-01-01 00:00:00


Category Cricket
Rating N/A
Size 1.22 GB
Show/Hide Files
1 file