Torrent’s details
Name Moto2 2021 Qatar Practice One 1080p WEB h264 VERUM
Image
Description General
Unique ID                                : 298432793852092315171355312807657509615 (0xE08410BE7E25272015F363D1AF3E92EF)
Complete name                            : moto2.2021.qatar.practice.one.1080p.web.h264-verum.mkv
Format                                   : Matroska
Format version                           : Version 4
File size                                : 1.82 GiB
Duration                                 : 50 min 6 s
Overall bit rate                         : 5 194 kb/s
Encoded date                             : UTC 2021-03-26 14:10:36
Writing application                      : mkvmerge v30.1.0 ('Forever And More'wink.gif 64-bit
Writing library                          : libebml v1.3.6 + libmatroska v1.4.9

Video
ID                                       : 1
Format                                   : AVC
Format/Info                              : Advanced Video Codec
Format profile                           : Main@L4.2
Format settings                          : CABAC / 2 Ref Frames
Format settings, CABAC                   : Yes
Format settings, Reference frames        : 2 frames
Codec ID                                 : V_MPEG4/ISO/AVC
Duration                                 : 50 min 6 s
Bit rate                                 : 5 000 kb/s
Width                                    : 1 920 pixels
Height                                   : 1 080 pixels
Display aspect ratio                     : 16:9
Frame rate mode                          : Constant
Frame rate                               : 50.000 FPS
Color space                              : YUV
Chroma subsampling                       : 4:2:0
Bit depth                                : 8 bits
Scan type                                : Progressive
Bits/(Pixel*Frame)                       : 0.048
Stream size                              : 1.75 GiB (96%)
Writing library                          : x264 core 120 r3399M a9606a3
Encoding settings                        : cabac=1 / ref=2 / deblock=1:0:0 / analyse=0x1:0x11 / me=hex / subme=4 / psy=1 / psy_rd=1.00:0.00 / mixed_ref=0 / me_range=16 / chroma_me=1 / trellis=1 / 8x8dct=0 / cqm=0 / deadzone=21,11 / fast_pskip=1 / chroma_qp_offset=0 / threads=48 / sliced_threads=0 / nr=0 / decimate=1 / interlaced=0 / bluray_compat=0 / constrained_intra=0 / bframes=0 / weightp=1 / keyint=100 / keyint_min=51 / scenecut=0 / intra_refresh=0 / keytime=0 / rc_lookahead=20 / rc=cbr / mbtree=1 / bitrate=5000 / ratetol=1.0 / qcomp=0.60 / qpmin=10 / qpmax=51 / qpstep=4 / vbv_maxrate=5000 / vbv_bufsize=10000 / nal_hrd=none / ip_ratio=1.40 / aq=1:1.00
Default                                  : Yes
Forced                                   : No

Audio
ID                                       : 2
Format                                   : AAC LC
Format/Info                              : Advanced Audio Codec Low Complexity
Codec ID                                 : A_AAC-2
Duration                                 : 50 min 6 s
Bit rate                                 : 192 kb/s
Channel(s)                               : 2 channels
Channel layout                           : L R
Sampling rate                            : 48.0 kHz
Frame rate                               : 46.875 FPS (1024 SPF)
Compression mode                         : Lossy
Stream size                              : 68.8 MiB (4%)
Default                                  : Yes
Forced                                   : No
Category MotorSport
Rating N/A
Size 1.82 GB
Show/Hide Files
1 file