Torrent’s details
Name NCAAF 2021 Georgia Bulldogs vs Kentucky Wildcats 16/10/2021 720pEN30fps | SEC on CBS
Image
Description https://www.espn.com/college-football/boxscore/_/gameId/401282105
Format                                   : Matroska
Format version                           : Version 4
File size                                : 3.74 GiB
Duration                                 : 2 h 18 min
Overall bit rate                         : 3 857 kb/s
Encoded date                             : UTC 2021-10-17 08:05:35
Writing application                      : mkvmerge v50.0.0 ('Awakenings'wink.gif 64-bit
Writing library                          : libebml v1.4.0 + libmatroska v1.6.2
Video ID                                       : 1
Format                                   : AVC
Format/Info                              : Advanced Video Codec
Format profile                           : Main@L3.1
Format settings                          : 3 Ref Frames
Format settings, CABAC                   : No
Format settings, Reference frames        : 3 frames
Codec ID                                 : V_MPEG4/ISO/AVC
Duration                                 : 2 h 18 min
Bit rate mode                            : Constant
Bit rate                                 : 3 729 kb/s
Nominal bit rate                         : 3 000 kb/s
Width                                    : 1 280 pixels
Height                                   : 720 pixels
Display aspect ratio                     : 16:9
Frame rate mode                          : Constant
Frame rate                               : 29.970 (29970/1000) FPS
Original frame rate                      : 29.970 (30000/1001) FPS
Standard                                 : NTSC
Color space                              : YUV
Chroma subsampling                       : 4:2:0
Bit depth                                : 8 bits
Scan type                                : Progressive
Bits/(Pixel*Frame)                       : 0.135
Stream size                              : 3.62 GiB (97%)
Default                                  : Yes
Forced                                   : No
Color range                              : Limited
Audio ID                                       : 2
Format                                   : AAC LC
Format/Info                              : Advanced Audio Codec Low Complexity
Codec ID                                 : A_AAC-2
Duration                                 : 2 h 18 min
Bit rate                                 : 125 kb/s
Channel(s)                               : 2 channels
Channel layout                           : L R
Sampling rate                            : 48.0 kHz
Frame rate                               : 46.875 FPS (1024 SPF)
Compression mode                         : Lossy
Delay relative to video                  : 14 ms
Stream size                              : 125 MiB (3%)
Default                                  : Yes
Forced                                   : No
Category NCAA Basket/Football
Rating N/A
Size 3.74 GB
Show/Hide Files
1 file